  0
SECTION
  2
HEADER
  9
$ACADVER
  1
AC1015
  9
$ACADMAINTVER
 70
    13
  9
$DWGCODEPAGE
  3
ANSI_932
  9
$INSBASE
 10
0.0
 20
0.0
 30
0.0
  9
$EXTMIN
 10
-101.2386135468512
 20
-122.0888244222512
 30
0.0
  9
$EXTMAX
 10
448.5494074928614
 20
455.4025719893299
 30
0.0
  9
$LIMMIN
 10
0.0
 20
0.0
  9
$LIMMAX
 10
420.0
 20
297.0
  9
$ORTHOMODE
 70
     1
  9
$REGENMODE
 70
     1
  9
$FILLMODE
 70
     1
  9
$QTEXTMODE
 70
     0
  9
$MIRRTEXT
 70
     1
  9
$LTSCALE
 40
0.5
  9
$ATTMODE
 70
     1
  9
$TEXTSIZE
 40
2.5
  9
$TRACEWID
 40
1.0
  9
$TEXTSTYLE
  7
STANDARD
  9
$CLAYER
  8
DISC
  9
$CELTYPE
  6
BYLAYER
  9
$CECOLOR
 62
   256
  9
$CELTSCALE
 40
0.5
  9
$DISPSILH
 70
     0
  9
$DIMSCALE
 40
0.0
  9
$DIMASZ
 40
2.5
  9
$DIMEXO
 40
2.0
  9
$DIMDLI
 40
7.0
  9
$DIMRND
 40
0.0
  9
$DIMDLE
 40
0.0
  9
$DIMEXE
 40
0.5
  9
$DIMTP
 40
0.0
  9
$DIMTM
 40
0.0
  9
$DIMTXT
 40
2.5
  9
$DIMCEN
 40
0.0
  9
$DIMTSZ
 40
0.0
  9
$DIMTOL
 70
     0
  9
$DIMLIM
 70
     0
  9
$DIMTIH
 70
     0
  9
$DIMTOH
 70
     0
  9
$DIMSE1
 70
     0
  9
$DIMSE2
 70
     0
  9
$DIMTAD
 70
     3
  9
$DIMZIN
 70
     8
  9
$DIMBLK
  1

  9
$DIMASO
 70
     1
  9
$DIMSHO
 70
     1
  9
$DIMPOST
  1

  9
$DIMAPOST
  1

  9
$DIMALT
 70
     0
  9
$DIMALTD
 70
     4
  9
$DIMALTF
 40
0.0394
  9
$DIMLFAC
 40
1.0
  9
$DIMTOFL
 70
     0
  9
$DIMTVP
 40
0.0
  9
$DIMTIX
 70
     0
  9
$DIMSOXD
 70
     0
  9
$DIMSAH
 70
     1
  9
$DIMBLK1
  1
OPEN
  9
$DIMBLK2
  1
OPEN
  9
$DIMSTYLE
  2
MECH
  9
$DIMCLRD
 70
   144
  9
$DIMCLRE
 70
   144
  9
$DIMCLRT
 70
     7
  9
$DIMTFAC
 40
1.0
  9
$DIMGAP
 40
0.6
  9
$DIMJUST
 70
     0
  9
$DIMSD1
 70
     0
  9
$DIMSD2
 70
     0
  9
$DIMTOLJ
 70
     1
  9
$DIMTZIN
 70
     0
  9
$DIMALTZ
 70
     0
  9
$DIMALTTZ
 70
     0
  9
$DIMUPT
 70
     0
  9
$DIMDEC
 70
     1
  9
$DIMTDEC
 70
     1
  9
$DIMALTU
 70
     8
  9
$DIMALTTD
 70
     4
  9
$DIMTXSTY
  7
STANDARD
  9
$DIMAUNIT
 70
     0
  9
$DIMADEC
 70
     0
  9
$DIMALTRND
 40
0.0
  9
$DIMAZIN
 70
     0
  9
$DIMDSEP
 70
    46
  9
$DIMATFIT
 70
     3
  9
$DIMFRAC
 70
     0
  9
$DIMLDRBLK
  1
OPEN
  9
$DIMLUNIT
 70
     2
  9
$DIMLWD
 70
    -2
  9
$DIMLWE
 70
    -2
  9
$DIMTMOVE
 70
     2
  9
$LUNITS
 70
     2
  9
$LUPREC
 70
     3
  9
$SKETCHINC
 40
1.0
  9
$FILLETRAD
 40
17.0
  9
$AUNITS
 70
     0
  9
$AUPREC
 70
     1
  9
$MENU
  1
acad
  9
$ELEVATION
 40
0.0
  9
$PELEVATION
 40
0.0
  9
$THICKNESS
 40
0.0
  9
$LIMCHECK
 70
     0
  9
$CHAMFERA
 40
3.0
  9
$CHAMFERB
 40
3.0
  9
$CHAMFERC
 40
20.0
  9
$CHAMFERD
 40
0.0
  9
$SKPOLY
 70
     0
  9
$TDCREATE
 40
2450969.622122685
  9
$TDUCREATE
 40
2450969.247122685
  9
$TDUPDATE
 40
2453605.644979548
  9
$TDUUPDATE
 40
2453605.269979548
  9
$TDINDWG
 40
2.4621649653
  9
$TDUSRTIMER
 40
2.4621649653
  9
$USRTIMER
 70
     1
  9
$ANGBASE
 50
0.0
  9
$ANGDIR
 70
     0
  9
$PDMODE
 70
     0
  9
$PDSIZE
 40
0.0
  9
$PLINEWID
 40
0.0
  9
$SPLFRAME
 70
     0
  9
$SPLINETYPE
 70
     6
  9
$SPLINESEGS
 70
     8
  9
$HANDSEED
  5
2B98
  9
$SURFTAB1
 70
     6
  9
$SURFTAB2
 70
     6
  9
$SURFTYPE
 70
     6
  9
$SURFU
 70
     6
  9
$SURFV
 70
     6
  9
$UCSBASE
  2

  9
$UCSNAME
  2

  9
$UCSORG
 10
0.0
 20
0.0
 30
0.0
  9
$UCSXDIR
 10
1.0
 20
0.0
 30
0.0
  9
$UCSYDIR
 10
0.0
 20
1.0
 30
0.0
  9
$UCSORTHOREF
  2

  9
$UCSORTHOVIEW
 70
     0
  9
$UCSORGTOP
 10
0.0
 20
0.0
 30
0.0
  9
$UCSORGBOTTOM
 10
0.0
 20
0.0
 30
0.0
  9
$UCSORGLEFT
 10
0.0
 20
0.0
 30
0.0
  9
$UCSORGRIGHT
 10
0.0
 20
0.0
 30
0.0
  9
$UCSORGFRONT
 10
0.0
 20
0.0
 30
0.0
  9
$UCSORGBACK
 10
0.0
 20
0.0
 30
0.0
  9
$PUCSBASE
  2

  9
$PUCSNAME
  2

  9
$PUCSORG
 10
0.0
 20
0.0
 30
0.0
  9
$PUCSXDIR
 10
1.0
 20
0.0
 30
0.0
  9
$PUCSYDIR
 10
0.0
 20
1.0
 30
0.0
  9
$PUCSORTHOREF
  2

  9
$PUCSORTHOVIEW
 70
     0
  9
$PUCSORGTOP
 10
0.0
 20
0.0
 30
0.0
  9
$PUCSORGBOTTOM
 10
0.0
 20
0.0
 30
0.0
  9
$PUCSORGLEFT
 10
0.0
 20
0.0
 30
0.0
  9
$PUCSORGRIGHT
 10
0.0
 20
0.0
 30
0.0
  9
$PUCSORGFRONT
 10
0.0
 20
0.0
 30
0.0
  9
$PUCSORGBACK
 10
0.0
 20
0.0
 30
0.0
  9
$USERI1
 70
     0
  9
$USERI2
 70
     0
  9
$USERI3
 70
     0
  9
$USERI4
 70
     0
  9
$USERI5
 70
     0
  9
$USERR1
 40
0.0
  9
$USERR2
 40
0.0
  9
$USERR3
 40
0.0
  9
$USERR4
 40
0.0
  9
$USERR5
 40
0.0
  9
$WORLDVIEW
 70
     1
  9
$SHADEDGE
 70
     3
  9
$SHADEDIF
 70
    70
  9
$TILEMODE
 70
     0
  9
$MAXACTVP
 70
    48
  9
$PINSBASE
 10
0.0
 20
0.0
 30
0.0
  9
$PLIMCHECK
 70
     0
  9
$PEXTMIN
 10
-19.70256715332959
 20
13.48851832212221
 30
-0.0015258207003583
  9
$PEXTMAX
 10
299.0236592839705
 20
300.0602863080487
 30
0.0000000349246037
  9
$PLIMMIN
 10
-25.10304108190843
 20
7.486306934874104
  9
$PLIMMAX
 10
397.0073776884312
 20
305.9421436969155
  9
$UNITMODE
 70
     0
  9
$VISRETAIN
 70
     1
  9
$PLINEGEN
 70
     0
  9
$PSLTSCALE
 70
     1
  9
$TREEDEPTH
 70
  3020
  9
$CMLSTYLE
  2
STANDARD
  9
$CMLJUST
 70
     0
  9
$CMLSCALE
 40
20.0
  9
$PROXYGRAPHICS
 70
     1
  9
$MEASUREMENT
 70
     1
  9
$CELWEIGHT
370
    -1
  9
$ENDCAPS
280
     0
  9
$JOINSTYLE
280
     0
  9
$LWDISPLAY
290
     0
  9
$INSUNITS
 70
     0
  9
$HYPERLINKBASE
  1

  9
$STYLESHEET
  1

  9
$XEDIT
290
     1
  9
$CEPSNTYPE
380
     0
  9
$PSTYLEMODE
290
     1
  9
$FINGERPRINTGUID
  2
{E25B8DD8-6E51-4C5A-9EB4-FCFB191940DB}
  9
$VERSIONGUID
  2
{B2B99E96-6AA3-4D8D-B18E-1ACF82FD1C41}
  9
$EXTNAMES
290
     1
  9
$PSVPSCALE
 40
0.0
  9
$OLESTARTUP
290
     0
  0
ENDSEC
  0
SECTION
  2
CLASSES
  0
CLASS
  1
LWPOLYLINE
  2
AcDbPolyline
  3
AutoCAD 2000
 90
    32768
280
     0
281
     1
  0
CLASS
  1
DICTIONARYVAR
  2
AcDbDictionaryVar
  3
AutoCAD 2000
 90
        0
280
     0
281
     0
  0
CLASS
  1
HATCH
  2
AcDbHatch
  3
AutoCAD 2000
 90
    32768
280
     0
281
     1
  0
CLASS
  1
OLE2FRAME
  2
AcDbOle2Frame
  3
AutoCAD 2000
 90
    32768
280
     0
281
     1
  0
CLASS
  1
ACDBDICTIONARYWDFLT
  2
AcDbDictionaryWithDefault
  3
AutoCAD 2000
 90
        0
280
     0
281
     0
  0
CLASS
  1
ACDBPLACEHOLDER
  2
AcDbPlaceHolder
  3
AutoCAD 2000
 90
        0
280
     0
281
     0
  0
CLASS
  1
LAYOUT
  2
AcDbLayout
  3
AutoCAD 2000
 90
        0
280
     0
281
     0
  0
ENDSEC
  0
SECTION
  2
TABLES
  0
TABLE
  2
VPORT
  5
8
330
0
100
AcDbSymbolTable
 70
     1
  0
VPORT
  5
2B8A
330
8
100
AcDbSymbolTableRecord
100
AcDbViewportTableRecord
  2
*ACTIVE
 70
     0
 10
0.0
 20
0.0
 11
1.0
 21
1.0
 12
158.3233426036515
 22
133.3025674047478
 13
0.0
 23
0.0
 14
10.0
 24
10.0
 15
10.0
 25
10.0
 16
0.0
 26
0.0
 36
1.0
 17
0.0
 27
0.0
 37
0.0
 40
548.797785799763
 41
1.724907063197026
 42
50.0
 43
0.0
 44
0.0
 50
0.0
 51
0.0
 71
     0
 72
   100
 73
     1
 74
     1
 75
     0
 76
     0
 77
     0
 78
     0
281
     0
 65
     1
110
0.0
120
0.0
130
0.0
111
1.0
121
0.0
131
0.0
112
0.0
122
1.0
132
0.0
 79
     0
146
0.0
  0
ENDTAB
  0
TABLE
  2
LTYPE
  5
5
330
0
100
AcDbSymbolTable
 70
     4
  0
LTYPE
  5
12
330
5
100
AcDbSymbolTableRecord
100
AcDbLinetypeTableRecord
  2
BYBLOCK
 70
     0
  3

 72
    65
 73
     0
 40
0.0
  0
LTYPE
  5
13
330
5
100
AcDbSymbolTableRecord
100
AcDbLinetypeTableRecord
  2
BYLAYER
 70
     0
  3

 72
    65
 73
     0
 40
0.0
  0
LTYPE
  5
14
330
5
100
AcDbSymbolTableRecord
100
AcDbLinetypeTableRecord
  2
CONTINUOUS
 70
     0
  3
Solid line
 72
    65
 73
     0
 40
0.0
  0
LTYPE
  5
8B
330
5
100
AcDbSymbolTableRecord
100
AcDbLinetypeTableRecord
  2
CENTER
 70
     0
  3
Center ____ _ ____ _ ____ _ ____ _ ____ _ ____
 72
    65
 73
     4
 40
50.8
 49
31.75
 74
     0
 49
-6.349999999999999
 74
     0
 49
6.349999999999999
 74
     0
 49
-6.349999999999999
 74
     0
  0
LTYPE
  5
96
330
5
100
AcDbSymbolTableRecord
100
AcDbLinetypeTableRecord
  2
CENTER2
 70
     0
  3
Center (.5x) ___ _ ___ _ ___ _ ___ _ ___ _ ___
 72
    65
 73
     4
 40
28.57499999999999
 49
19.05
 74
     0
 49
-3.174999999999999
 74
     0
 49
3.174999999999999
 74
     0
 49
-3.174999999999999
 74
     0
  0
LTYPE
  5
579
330
5
100
AcDbSymbolTableRecord
100
AcDbLinetypeTableRecord
  2
PHANTOM2
 70
     0
  3
Phantom (.5x) ___ _ _ ___ _ _ ___ _ _ ___ _ _
 72
    65
 73
     6
 40
31.75
 49
15.875
 74
     0
 49
-3.174999999999999
 74
     0
 49
3.174999999999999
 74
     0
 49
-3.174999999999999
 74
     0
 49
3.174999999999999
 74
     0
 49
-3.174999999999999
 74
     0
  0
ENDTAB
  0
TABLE
  2
LAYER
  5
2
330
0
100
AcDbSymbolTable
 70
    13
  0
LAYER
  5
E
330
2
100
AcDbSymbolTableRecord
100
AcDbLayerTableRecord
  2
0
 70
     0
 62
    -7
  6
CONTINUOUS
370
    -3
390
2B8D
  0
LAYER
  5
37
330
2
100
AcDbSymbolTableRecord
100
AcDbLayerTableRecord
  2
TITLE_BLOCK
 70
     0
 62
     7
  6
CONTINUOUS
370
    -3
390
2B8D
  0
LAYER
  5
80
330
2
100
AcDbSymbolTableRecord
100
AcDbLayerTableRecord
  2
VIEWPORT
 70
     0
 62
     7
  6
CONTINUOUS
370
    -3
390
2B8D
  0
LAYER
  5
8C
330
2
100
AcDbSymbolTableRecord
100
AcDbLayerTableRecord
  2
CARCT
 70
     0
 62
     7
  6
CONTINUOUS
370
    -3
390
2B8D
  0
LAYER
  5
8D
330
2
100
AcDbSymbolTableRecord
100
AcDbLayerTableRecord
  2
DIMS
 70
     0
 62
   144
  6
CONTINUOUS
370
    -3
390
2B8D
  0
LAYER
  5
8E
330
2
100
AcDbSymbolTableRecord
100
AcDbLayerTableRecord
  2
CENTER
 70
     0
 62
     7
  6
CENTER2
370
    -3
390
2B8D
  0
LAYER
  5
97
330
2
100
AcDbSymbolTableRecord
100
AcDbLayerTableRecord
  2
BODY
 70
     0
 62
     3
  6
CONTINUOUS
370
    -3
390
2B8D
  0
LAYER
  5
98
330
2
100
AcDbSymbolTableRecord
100
AcDbLayerTableRecord
  2
DISC
 70
     0
 62
     5
  6
CONTINUOUS
370
    -3
390
2B8D
  0
LAYER
  5
99
330
2
100
AcDbSymbolTableRecord
100
AcDbLayerTableRecord
  2
SHAFT
 70
     0
 62
     1
  6
CONTINUOUS
370
    -3
390
2B8D
  0
LAYER
  5
9A
330
2
100
AcDbSymbolTableRecord
100
AcDbLayerTableRecord
  2
SEAT
 70
     0
 62
     6
  6
CONTINUOUS
370
    -3
390
2B8D
  0
LAYER
  5
9B
330
2
100
AcDbSymbolTableRecord
100
AcDbLayerTableRecord
  2
SEATOSAE
 70
     0
 62
     4
  6
CONTINUOUS
370
    -3
390
2B8D
  0
LAYER
  5
338
330
2
100
AcDbSymbolTableRecord
100
AcDbLayerTableRecord
  2
DEFPOINTS
 70
     0
 62
     7
  6
CONTINUOUS
290
     0
370
    -3
390
2B8D
  0
LAYER
  5
190D
330
2
100
AcDbSymbolTableRecord
100
AcDbLayerTableRecord
  2
KASOU
 70
     0
 62
     3
  6
PHANTOM2
370
    -3
390
2B8D
  0
ENDTAB
  0
TABLE
  2
STYLE
  5
3
330
0
100
AcDbSymbolTable
 70
     3
  0
STYLE
  5
F
330
3
100
AcDbSymbolTableRecord
100
AcDbTextStyleTableRecord
  2
STANDARD
 70
     0
 40
0.0
 41
1.0
 50
0.0
 71
     0
 42
2.5
  3
romans.shx
  4
bigfont.shx
  0
STYLE
  5
38
330
3
100
AcDbSymbolTableRecord
100
AcDbTextStyleTableRecord
  2
MSG
 70
     0
 40
0.0
 41
1.0
 50
0.0
 71
     0
 42
2.5
  3
MS Gothic.ttf
  4

1001
ACAD
1000
MS Gothic
1071
    32817
  0
STYLE
  5
8A
330
3
100
AcDbSymbolTableRecord
100
AcDbTextStyleTableRecord
  2

 70
     1
 40
0.0
 41
1.0
 50
0.0
 71
     0
 42
2.5
  3
ltypeshp.shx
  4

  0
ENDTAB
  0
TABLE
  2
VIEW
  5
6
330
0
100
AcDbSymbolTable
 70
     0
  0
ENDTAB
  0
TABLE
  2
UCS
  5
7
330
0
100
AcDbSymbolTable
 70
     0
  0
ENDTAB
  0
TABLE
  2
APPID
  5
9
330
0
100
AcDbSymbolTable
 70
     4
  0
APPID
  5
10
330
9
100
AcDbSymbolTableRecord
100
AcDbRegAppTableRecord
  2
ACAD
 70
     0
  0
APPID
  5
24
330
9
100
AcDbSymbolTableRecord
100
AcDbRegAppTableRecord
  2
CONTENTTABDATA
 70
     0
  0
APPID
  5
25
330
9
100
AcDbSymbolTableRecord
100
AcDbRegAppTableRecord
  2
CONTENTCURRENTTAB
 70
     0
  0
APPID
  5
10D3
330
9
100
AcDbSymbolTableRecord
100
AcDbRegAppTableRecord
  2
CONTENTBLOCKICON
 70
     0
  0
ENDTAB
  0
TABLE
  2
DIMSTYLE
  5
A
330
0
100
AcDbSymbolTable
 70
     3
100
AcDbDimStyleTable
 71
     0
  0
DIMSTYLE
105
1D
330
A
100
AcDbSymbolTableRecord
100
AcDbDimStyleTableRecord
  2
STANDARD
 70
     0
 41
2.5
 42
0.625
 43
3.75
 44
1.25
 73
     0
 74
     0
 77
     1
 78
     8
140
2.5
141
2.5
143
0.0394
147
0.625
171
     4
172
     1
271
     1
272
     1
273
     8
274
     4
340
F
  0
DIMSTYLE
105
39
330
A
100
AcDbSymbolTableRecord
100
AcDbDimStyleTableRecord
  2
STANDARD_WS
 70
     0
 41
2.5
 42
0.625
 43
3.75
 44
1.25
 73
     0
 74
     0
 77
     1
 78
     8
140
2.5
141
2.5
143
0.0394
147
0.625
171
     4
172
     1
271
     1
272
     1
273
     8
274
     4
340
F
  0
DIMSTYLE
105
8F
102
{ACAD_REACTORS
330
2B21
330
2B38
330
2B45
330
2B52
330
2B5F
330
2B77
102
}
330
A
100
AcDbSymbolTableRecord
100
AcDbDimStyleTableRecord
  2
MECH
 70
     0
 40
0.0
 41
2.5
 42
2.0
 43
7.0
 44
0.5
 73
     0
 74
     0
 77
     3
 78
     8
140
2.5
141
0.0
143
0.0394
147
0.6
171
     4
173
     1
176
   144
177
   144
178
     7
271
     1
272
     1
273
     8
274
     4
279
     2
340
F
341
E08
343
E08
344
E08
  0
ENDTAB
  0
TABLE
  2
BLOCK_RECORD
  5
1
330
0
100
AcDbSymbolTable
 70
    12
  0
BLOCK_RECORD
  5
18
330
1
100
AcDbSymbolTableRecord
100
AcDbBlockTableRecord
  2
*MODEL_SPACE
340
2B90
  0
BLOCK_RECORD
  5
15
330
1
100
AcDbSymbolTableRecord
100
AcDbBlockTableRecord
  2
*PAPER_SPACE
340
2B91
  0
BLOCK_RECORD
  5
3A
330
1
100
AcDbSymbolTableRecord
100
AcDbBlockTableRecord
  2
TITLE_BLOCK
340
0
  0
BLOCK_RECORD
  5
655
330
1
100
AcDbSymbolTableRecord
100
AcDbBlockTableRecord
  2
A$C265B093F
340
0
  0
BLOCK_RECORD
  5
E08
330
1
100
AcDbSymbolTableRecord
100
AcDbBlockTableRecord
  2
_OPEN
340
0
102
{BLKREFS
331
1117
331
1119
331
111B
331
111D
331
111F
331
1121
331
1130
331
1132
331
1134
331
1136
331
1AA0
331
1AA3
331
1AA5
331
1AA7
331
1AAC
331
1AAE
331
1AB0
331
1AB5
331
1AB7
331
1AB9
331
1ABB
331
1AC1
331
1AC3
331
1AC7
331
1AC9
331
10D0
331
2B1A
331
2B1B
331
2B33
331
2B34
331
2B3E
331
2B3F
331
2B64
331
2B65
331
2B58
331
2B59
331
2B70
331
2B71
102
}
  0
BLOCK_RECORD
  5
1062
330
1
100
AcDbSymbolTableRecord
100
AcDbBlockTableRecord
  2
A$C61DC682B
340
0
  0
BLOCK_RECORD
  5
10CE
330
1
100
AcDbSymbolTableRecord
100
AcDbBlockTableRecord
  2
YAJIRUSI
340
0
310
2800000020000000200000000100040000000000000200000000000000000000000000000000000000000000000080000080000000808000800000008000800080800000C0C0C000808080000000FF0000FF000000FFFF00FF000000FF00FF00FFFF0000FFFFFF00FFFFFFFFFFFFFFFFFFFFFFFFFFFFFFFFFFFFFFFFFFFFFF
310
FFFFFFFFFFFFFFFFFFFFFFFFFFFFFFFFFFFFFFFFFFFFFFFFFFFFFFFFFFFFFFFFFFFFFFFFFFFFFFFFFFFFFFFFFFFFFFFFFFFFFFFFFFFFFFFFFFFFFFFFFFFFFFFFFFFFFFFFFFFFFFFFFFFFFFFFFFFFFFFFFFFFFFFFFFFFFFFFFFFFFFFFFFFFFFFFFFFFFFFFFFFFFFFFFFFFFFFFFFFFFFFFFFFFFFFFFFFFFFFFFFFFFFFFFFFFFF
310
FFFFFFFFFFFFFFFFFFFFFFFFFFFFFFFFFFFFFFFFFFFFFFFFFFFFFFFFFFFFFFFFFFFFFFFFFFFFFFFFFFFFFFFFFFFFFFFFFFFFFFFFFFFFFFFFFFFFFFFFFFFFFFFFFFFFFFFFFFFFFFFFFFFFFFFFFFFFFFFFFFFFFFFFFFFFFFFFFFFFFFFFFFFFFFFFFFFFFFFFFFFFFFFFFFFF6666666666666666666666666666666FFFFFFFFFFF
310
FFFFFFFFFFFFFFFFFFFFFFFFFFFFFFFFFFFFFFFFFFFFFFFFFFFFFFFFFFFFFFFFFFFFFFFFFFFFFFFFFFFFFFFFFFFFFFFFFFFFFFFFFFFFFFFFFFFFFFFFFFFFFFFFFFFFFFFFFFFFFFFFFFFFFFFFFFFFFFFFFFFFFFFFFFFFFFFFFFFFFFFFFFFFFFFFFFFFFFFFFFFFFFFFFFFFFFFFFFFFFFFFFFFFFFFFFFFFFFFFFFFFFFFFFFFFFF
310
FFFFFFFFFFFFFFFFFFFFFFFFFFFFFFFFFFFFFFFFFFFFFFFFFFFFFFFFFFFFFFFFFFFFFFFFFFFFFFFFFFFFFFFFFFFFFFFFFFFFFFFFFFFFFFFFFFFFFFFFFFFFFFFFFFFFFFFFFFFFFFFFFFFFFFFFFFFFFFFFFFFFFFFFFFFFFFFFFFFFFFFFFFFFFFFFFFFFFFFFFFFFFFFFFFFFFFFF
102
{BLKREFS
331
10D5
102
}
  0
BLOCK_RECORD
  5
10D4
330
1
100
AcDbSymbolTableRecord
100
AcDbBlockTableRecord
  2
A$C0D0F6E83
340
0
  0
BLOCK_RECORD
  5
2B15
330
1
100
AcDbSymbolTableRecord
100
AcDbBlockTableRecord
  2
*D6
340
0
  0
BLOCK_RECORD
  5
2B2F
330
1
100
AcDbSymbolTableRecord
100
AcDbBlockTableRecord
  2
*D7
340
0
  0
BLOCK_RECORD
  5
2B39
330
1
100
AcDbSymbolTableRecord
100
AcDbBlockTableRecord
  2
*D8
340
0
  0
BLOCK_RECORD
  5
2B46
330
1
100
AcDbSymbolTableRecord
100
AcDbBlockTableRecord
  2
*D9
340
0
  0
BLOCK_RECORD
  5
2B53
330
1
100
AcDbSymbolTableRecord
100
AcDbBlockTableRecord
  2
*D10
340
0
  0
BLOCK_RECORD
  5
2B6B
330
1
100
AcDbSymbolTableRecord
100
AcDbBlockTableRecord
  2
*D11
340
0
  0
ENDTAB
  0
ENDSEC
  0
SECTION
  2
BLOCKS
  0
BLOCK
  5
19
330
18
100
AcDbEntity
  8
0
100
AcDbBlockBegin
  2
*MODEL_SPACE
 70
     0
 10
0.0
 20
0.0
 30
0.0
  3
*MODEL_SPACE
  1

  0
ENDBLK
  5
1A
330
18
100
AcDbEntity
  8
0
100
AcDbBlockEnd
  0
BLOCK
  5
16
330
15
100
AcDbEntity
 67
     1
  8
0
100
AcDbBlockBegin
  2
*PAPER_SPACE
 70
     0
 10
0.0
 20
0.0
 30
0.0
  3
*PAPER_SPACE
  1

  0
ENDBLK
  5
17
330
15
100
AcDbEntity
 67
     1
  8
0
100
AcDbBlockEnd
  0
BLOCK
  5
74
330
3A
100
AcDbEntity
  8
0
100
AcDbBlockBegin
  2
TITLE_BLOCK
 70
     2
 10
0.0
 20
0.0
 30
0.0
  3
TITLE_BLOCK
  1

  0
LWPOLYLINE
  5
3B
330
3A
100
AcDbEntity
  8
0
100
AcDbPolyline
 90
        4
 70
     1
 43
0.0
 10
0.0
 20
0.0
 10
420.0
 20
0.0
 10
420.0
 20
297.0
 10
0.0
 20
297.0
  0
LWPOLYLINE
  5
3C
330
3A
100
AcDbEntity
  8
0
100
AcDbPolyline
 90
        4
 70
     1
 43
0.0
 10
20.0
 20
20.0
 10
400.0
 20
20.0
 10
400.0
 20
277.0
 10
20.0
 20
277.0
  0
LINE
  5
3D
330
3A
100
AcDbEntity
  8
0
100
AcDbLine
 10
300.0
 20
20.0
 30
0.0
 11
300.0
 21
76.0
 31
0.0
  0
LINE
  5
3E
330
3A
100
AcDbEntity
  8
0
100
AcDbLine
 10
400.0
 20
32.0
 30
0.0
 11
300.0
 21
32.0
 31
0.0
  0
LINE
  5
3F
330
3A
100
AcDbEntity
  8
0
100
AcDbLine
 10
340.0
 20
38.0
 30
0.0
 11
300.0
 21
38.0
 31
0.0
  0
LINE
  5
40
330
3A
100
AcDbEntity
  8
0
100
AcDbLine
 10
400.0
 20
44.0
 30
0.0
 11
300.0
 21
44.0
 31
0.0
  0
LINE
  5
41
330
3A
100
AcDbEntity
  8
0
100
AcDbLine
 10
400.0
 20
56.0
 30
0.0
 11
300.0
 21
56.0
 31
0.0
  0
LINE
  5
42
330
3A
100
AcDbEntity
  8
0
100
AcDbLine
 10
400.0
 20
76.0
 30
0.0
 11
300.0
 21
76.0
 31
0.0
  0
LINE
  5
43
330
3A
100
AcDbEntity
  8
0
100
AcDbLine
 10
340.0
 20
32.0
 30
0.0
 11
340.0
 21
44.0
 31
0.0
  0
LINE
  5
44
330
3A
100
AcDbEntity
  8
0
100
AcDbLine
 10
350.0
 20
44.0
 30
0.0
 11
350.0
 21
56.0
 31
0.0
  0
LINE
  5
45
330
3A
100
AcDbEntity
  8
0
100
AcDbLine
 10
355.0
 20
44.0
 30
0.0
 11
355.0
 21
56.0
 31
0.0
  0
LINE
  5
46
330
3A
100
AcDbEntity
  8
0
100
AcDbLine
 10
375.0
 20
44.0
 30
0.0
 11
375.0
 21
56.0
 31
0.0
  0
LINE
  5
47
330
3A
100
AcDbEntity
  8
0
100
AcDbLine
 10
330.0
 20
44.0
 30
0.0
 11
330.0
 21
56.0
 31
0.0
  0
LINE
  5
48
330
3A
100
AcDbEntity
  8
0
100
AcDbLine
 10
380.0
 20
44.0
 30
0.0
 11
380.0
 21
56.0
 31
0.0
  0
LINE
  5
49
330
3A
100
AcDbEntity
  8
0
100
AcDbLine
 10
325.0
 20
44.0
 30
0.0
 11
325.0
 21
56.0
 31
0.0
  0
LINE
  5
4A
330
3A
100
AcDbEntity
  8
0
100
AcDbLine
 10
305.0
 20
44.0
 30
0.0
 11
305.0
 21
56.0
 31
0.0
  0
LINE
  5
4B
330
3A
100
AcDbEntity
  8
0
100
AcDbLine
 10
345.0
 20
32.0
 30
0.0
 11
345.0
 21
44.0
 31
0.0
  0
LINE
  5
4C
330
3A
100
AcDbEntity
  8
0
100
AcDbLine
 10
375.0
 20
32.0
 30
0.0
 11
375.0
 21
33.0
 31
0.0
  0
LINE
  5
4D
330
3A
100
AcDbEntity
  8
0
100
AcDbLine
 10
375.0
 20
34.0
 30
0.0
 11
375.0
 21
35.0
 31
0.0
  0
LINE
  5
4E
330
3A
100
AcDbEntity
  8
0
100
AcDbLine
 10
375.0
 20
36.0
 30
0.0
 11
375.0
 21
37.0
 31
0.0
  0
LINE
  5
4F
330
3A
100
AcDbEntity
  8
0
100
AcDbLine
 10
375.0
 20
38.0
 30
0.0
 11
375.0
 21
39.0
 31
0.0
  0
LINE
  5
50
330
3A
100
AcDbEntity
  8
0
100
AcDbLine
 10
375.0
 20
40.0
 30
0.0
 11
375.0
 21
41.0
 31
0.0
  0
LINE
  5
51
330
3A
100
AcDbEntity
  8
0
100
AcDbLine
 10
375.0
 20
42.0
 30
0.0
 11
375.0
 21
43.0
 31
0.0
  0
LINE
  5
52
330
3A
100
AcDbEntity
  8
0
100
AcDbLine
 10
360.0
 20
32.0
 30
0.0
 11
360.0
 21
33.0
 31
0.0
  0
LINE
  5
53
330
3A
100
AcDbEntity
  8
0
100
AcDbLine
 10
360.0
 20
38.0
 30
0.0
 11
360.0
 21
39.0
 31
0.0
  0
LINE
  5
54
330
3A
100
AcDbEntity
  8
0
100
AcDbLine
 10
360.0
 20
36.0
 30
0.0
 11
360.0
 21
37.0
 31
0.0
  0
LINE
  5
55
330
3A
100
AcDbEntity
  8
0
100
AcDbLine
 10
360.0
 20
34.0
 30
0.0
 11
360.0
 21
35.0
 31
0.0
  0
LINE
  5
56
330
3A
100
AcDbEntity
  8
0
100
AcDbLine
 10
360.0
 20
42.0
 30
0.0
 11
360.0
 21
43.0
 31
0.0
  0
LINE
  5
57
330
3A
100
AcDbEntity
  8
0
100
AcDbLine
 10
360.0
 20
40.0
 30
0.0
 11
360.0
 21
41.0
 31
0.0
  0
TEXT
  5
58
330
3A
100
AcDbEntity
  8
0
100
AcDbText
 10
326.0
 20
22.72770384393581
 30
0.0
 40
5.0
  1
西澤バルブ製作所
  7
MSG
100
AcDbText
  0
TEXT
  5
59
330
3A
100
AcDbEntity
  8
0
100
AcDbText
 10
315.0
 20
26.0
 30
0.0
 40
2.5
  1
株式
  7
MSG
100
AcDbText
  0
TEXT
  5
5A
330
3A
100
AcDbEntity
  8
0
100
AcDbText
 10
315.0
 20
22.0
 30
0.0
 40
2.5
  1
会社
  7
MSG
100
AcDbText
  0
TEXT
  5
5B
330
3A
100
AcDbEntity
  8
0
100
AcDbText
 10
302.0
 20
33.5
 30
0.0
 40
3.0
  1
第    ３    角    法
100
AcDbText
  0
TEXT
  5
5C
330
3A
100
AcDbEntity
  8
0
100
AcDbText
 10
341.0
 20
39.0
 30
0.0
 40
3.0
  1
図
100
AcDbText
  0
TEXT
  5
5D
330
3A
100
AcDbEntity
  8
0
100
AcDbText
 10
341.0
 20
34.0
 30
0.0
 40
3.0
  1
番
100
AcDbText
  0
TEXT
  5
5E
330
3A
100
AcDbEntity
  8
0
100
AcDbText
 10
376.0000002167969
 20
51.00000011711438
 30
0.0
 40
3.0
  1
尺
100
AcDbText
  0
TEXT
  5
5F
330
3A
100
AcDbEntity
  8
0
100
AcDbText
 10
376.0000002167969
 20
46.00000011711438
 30
0.0
 40
3.0
  1
度
100
AcDbText
  0
TEXT
  5
60
330
3A
100
AcDbEntity
  8
0
100
AcDbText
 10
351.0000002167969
 20
51.00000011711438
 30
0.0
 40
3.0
  1
製
100
AcDbText
  0
TEXT
  5
61
330
3A
100
AcDbEntity
  8
0
100
AcDbText
 10
351.0000002167969
 20
46.00000011711438
 30
0.0
 40
3.0
  1
図
100
AcDbText
  0
TEXT
  5
62
330
3A
100
AcDbEntity
  8
0
100
AcDbText
 10
326.0000002167969
 20
51.00000011711438
 30
0.0
 40
3.0
  1
検
100
AcDbText
  0
TEXT
  5
63
330
3A
100
AcDbEntity
  8
0
100
AcDbText
 10
326.0000002167969
 20
46.00000011711438
 30
0.0
 40
3.0
  1
図
100
AcDbText
  0
TEXT
  5
64
330
3A
100
AcDbEntity
  8
0
100
AcDbText
 10
301.0000002167969
 20
51.00000011711438
 30
0.0
 40
3.0
  1
承
100
AcDbText
  0
TEXT
  5
65
330
3A
100
AcDbEntity
  8
0
100
AcDbText
 10
301.0000002167969
 20
46.00000011711438
 30
0.0
 40
3.0
  1
認
100
AcDbText
  0
LINE
  5
66
330
3A
100
AcDbEntity
  8
0
100
AcDbLine
 10
390.0
 20
34.0
 30
0.0
 11
398.0
 21
34.0
 31
0.0
  0
LINE
  5
67
330
3A
100
AcDbEntity
  8
0
100
AcDbLine
 10
398.0
 20
34.0
 30
0.0
 11
394.0
 21
42.0
 31
0.0
  0
LINE
  5
68
330
3A
100
AcDbEntity
  8
0
100
AcDbLine
 10
394.0
 20
42.0
 30
0.0
 11
390.0
 21
34.0
 31
0.0
  0
ATTDEF
  5
69
330
3A
100
AcDbEntity
  8
0
100
AcDbText
 10
301.0
 20
39.0
 30
0.0
 40
3.0
  1

100
AcDbAttributeDefinition
  3
年月日
  2
平成１０年１２月３１日
 70
     0
  0
ATTDEF
  5
6A
330
3A
100
AcDbEntity
  8
0
100
AcDbText
 10
381.0
 20
48.0
 30
0.0
 40
4.0
  1

100
AcDbAttributeDefinition
  3
尺度
  2
1/10
 70
     0
  0
ATTDEF
  5
6B
330
3A
100
AcDbEntity
  8
0
100
AcDbText
 10
347.0
 20
35.0
 30
0.0
 40
4.0
  1

100
AcDbAttributeDefinition
  3
形式
  2
JWD
 70
     0
  0
ATTDEF
  5
6C
330
3A
100
AcDbEntity
  8
0
100
AcDbText
 10
362.0
 20
35.0
 30
0.0
 40
4.0
  1

100
AcDbAttributeDefinition
  3
口径
  2
100
 70
     0
  0
ATTDEF
  5
6D
330
3A
100
AcDbEntity
  8
0
100
AcDbText
 10
377.0
 20
35.0
 30
0.0
 40
4.0
  1

100
AcDbAttributeDefinition
  3
番号
  2
001
 70
     0
  0
ATTDEF
  5
6E
330
3A
100
AcDbEntity
  8
0
100
AcDbText
 10
304.0
 20
67.0
 30
0.0
 40
5.0
  1

100
AcDbAttributeDefinition
  3
バルブ形式
  2
%%C100仕切弁
 70
     0
  0
ATTDEF
  5
6F
330
3A
100
AcDbEntity
  8
0
100
AcDbText
 10
330.0
 20
58.0
 30
0.0
 40
5.0
  1

100
AcDbAttributeDefinition
  3
図面名称
  2
組立図
 70
     0
  0
LINE
  5
70
330
3A
100
AcDbEntity
  8
0
100
AcDbLine
 10
20.0
 20
148.5
 30
0.0
 11
10.0
 21
148.5
 31
0.0
  0
LINE
  5
71
330
3A
100
AcDbEntity
  8
0
100
AcDbLine
 10
210.0
 20
277.0
 30
0.0
 11
210.0
 21
286.0
 31
0.0
  0
LINE
  5
72
330
3A
100
AcDbEntity
  8
0
100
AcDbLine
 10
210.0
 20
20.0
 30
0.0
 11
210.0
 21
10.0
 31
0.0
  0
LINE
  5
73
330
3A
100
AcDbEntity
  8
0
100
AcDbLine
 10
400.0
 20
148.5
 30
0.0
 11
410.0
 21
148.5
 31
0.0
  0
ENDBLK
  5
75
330
3A
100
AcDbEntity
  8
0
100
AcDbBlockEnd
  0
BLOCK
  5
67E
330
655
100
AcDbEntity
  8
0
100
AcDbBlockBegin
  2
A$C265B093F
 70
     0
 10
0.0
 20
0.0
 30
0.0
  3
A$C265B093F
  1

  0
LINE
  5
656
330
655
100
AcDbEntity
  8
SEATOSAE
100
AcDbLine
 10
66.00000012047189
 20
8.660253853597424
 30
0.0
 11
95.00000012047189
 21
8.660253853597424
 31
0.0
  0
LINE
  5
657
330
655
100
AcDbEntity
  8
SEATOSAE
100
AcDbLine
 10
30.00000012047189
 20
10.99999981575307
 30
0.0
 11
95.00000012047189
 21
10.99999981575307
 31
0.0
  0
LINE
  5
658
330
655
100
AcDbEntity
  8
SEATOSAE
100
AcDbLine
 10
21.0000001204719
 20
11.9999998157529
 30
0.0
 11
104.0000001204719
 21
11.99999981575309
 31
0.0
  0
LINE
  5
659
330
655
100
AcDbEntity
  8
SEATOSAE
100
AcDbLine
 10
3.000000120471895
 20
-0.0000001842469146
 30
0.0
 11
122.0000001204718
 21
-0.0000001842469146
 31
0.0
  0
LINE
  5
65A
330
655
100
AcDbEntity
  8
SEATOSAE
100
AcDbLine
 10
25.00000012047191
 20
-0.0000001842469288
 30
0.0
 11
30.00000012047189
 21
8.660253853597424
 31
0.0
  0
LINE
  5
65B
330
655
100
AcDbEntity
  8
SEATOSAE
100
AcDbLine
 10
1.100000120471896
 20
1.899999815753105
 30
0.0
 11
1.100000120471896
 21
12.99999981575307
 31
0.0
  0
LINE
  5
65C
330
655
100
AcDbEntity
  8
SEATOSAE
100
AcDbLine
 10
0.0000001204718956
 20
12.99999981575308
 30
0.0
 11
0.0000001204718956
 21
2.999999815753085
 31
0.0
  0
LINE
  5
65D
330
655
100
AcDbEntity
  8
SEATOSAE
100
AcDbLine
 10
0.0000001204718956
 20
2.999999815753085
 30
0.0
 11
3.000000120471895
 21
-0.0000001842469146
 31
0.0
  0
LINE
  5
65E
330
655
100
AcDbEntity
  8
SEATOSAE
100
AcDbLine
 10
14.50000012047189
 20
12.99999981575308
 30
0.0
 11
0.0000001204718956
 21
12.99999981575308
 31
0.0
  0
LINE
  5
65F
330
655
100
AcDbEntity
  8
SEATOSAE
100
AcDbLine
 10
14.50000012047189
 20
15.29999981575308
 30
0.0
 11
14.50000012047189
 21
12.99999981575308
 31
0.0
  0
LINE
  5
660
330
655
100
AcDbEntity
  8
SEATOSAE
100
AcDbLine
 10
21.0000001204719
 20
11.9999998157529
 30
0.0
 11
21.0000001204719
 21
20.99999981575308
 31
0.0
  0
LINE
  5
661
330
655
100
AcDbEntity
  8
SEATOSAE
100
AcDbLine
 10
19.0000001204719
 20
22.99999981575308
 30
0.0
 11
14.50000012047189
 21
22.99999981575308
 31
0.0
  0
LINE
  5
662
330
655
100
AcDbEntity
  8
SEATOSAE
100
AcDbLine
 10
14.50000012047189
 20
19.99999981575308
 30
0.0
 11
17.35000012047189
 21
19.99999981575308
 31
0.0
  0
LINE
  5
663
330
655
100
AcDbEntity
  8
SEATOSAE
100
AcDbLine
 10
14.50000012047189
 20
15.29999981575308
 30
0.0
 11
17.35000012047189
 21
15.29999981575308
 31
0.0
  0
LINE
  5
664
330
655
100
AcDbEntity
  8
SEATOSAE
100
AcDbLine
 10
17.35000012047189
 20
15.29999981575306
 30
0.0
 11
17.35000012047189
 21
19.99999981575308
 31
0.0
  0
LINE
  5
665
330
655
100
AcDbEntity
  8
SEATOSAE
100
AcDbLine
 10
14.50000012047189
 20
22.99999981575308
 30
0.0
 11
14.50000012047189
 21
19.99999981575308
 31
0.0
  0
LINE
  5
666
330
655
100
AcDbEntity
  8
SEATOSAE
100
AcDbLine
 10
19.0000001204719
 20
22.99999981575308
 30
0.0
 11
21.0000001204719
 21
20.99999981575308
 31
0.0
  0
LINE
  5
667
330
655
100
AcDbEntity
  8
SEATOSAE
100
AcDbLine
 10
30.00000012047189
 20
8.660253853597424
 30
0.0
 11
59.0000001204719
 21
8.660253853597424
 31
0.0
  0
LINE
  5
668
330
655
100
AcDbEntity
  8
SEATOSAE
100
AcDbLine
 10
30.00000012047189
 20
8.660253853597424
 30
0.0
 11
30.00000012047189
 21
10.99999981575307
 31
0.0
  0
LINE
  5
669
330
655
100
AcDbEntity
  8
SEATOSAE
100
AcDbLine
 10
29.00000012047189
 20
11.99999981575307
 30
0.0
 11
30.00000012047189
 21
10.99999981575307
 31
0.0
  0
LINE
  5
66A
330
655
100
AcDbEntity
  8
SEATOSAE
100
AcDbLine
 10
59.0000001204719
 20
8.66025385359741
 30
0.0
 11
59.0000001204719
 21
-0.0000001842469288
 31
0.0
  0
LINE
  5
66B
330
655
100
AcDbEntity
  8
SEATOSAE
100
AcDbLine
 10
66.00000012047189
 20
-0.0000001842469146
 30
0.0
 11
66.00000012047189
 21
8.66025385359741
 31
0.0
  0
LINE
  5
66C
330
655
100
AcDbEntity
  8
SEATOSAE
100
AcDbLine
 10
125.0000001204718
 20
12.99999981575308
 30
0.0
 11
110.5000001204718
 21
12.99999981575308
 31
0.0
  0
LINE
  5
66D
330
655
100
AcDbEntity
  8
SEATOSAE
100
AcDbLine
 10
100.0000001204718
 20
-0.0000001842469288
 30
0.0
 11
95.00000012047189
 21
8.660253853597424
 31
0.0
  0
LINE
  5
66E
330
655
100
AcDbEntity
  8
SEATOSAE
100
AcDbLine
 10
117.5000001204719
 20
4.999999815753085
 30
0.0
 11
117.5000001204719
 21
-0.0000001842469146
 31
0.0
  0
LINE
  5
66F
330
655
100
AcDbEntity
  8
SEATOSAE
100
AcDbLine
 10
107.5000001204718
 20
-0.0000001842469146
 30
0.0
 11
107.5000001204718
 21
4.999999815753085
 31
0.0
  0
LINE
  5
670
330
655
100
AcDbEntity
  8
SEATOSAE
100
AcDbLine
 10
96.00000012047189
 20
11.99999981575307
 30
0.0
 11
95.00000012047189
 21
10.99999981575307
 31
0.0
  0
LINE
  5
671
330
655
100
AcDbEntity
  8
SEATOSAE
100
AcDbLine
 10
95.00000012047189
 20
8.660253853597424
 30
0.0
 11
95.00000012047189
 21
10.99999981575307
 31
0.0
  0
LINE
  5
672
330
655
100
AcDbEntity
  8
SEATOSAE
100
AcDbLine
 10
104.0000001204719
 20
11.99999981575309
 30
0.0
 11
104.0000001204719
 21
20.99999981575308
 31
0.0
  0
LINE
  5
673
330
655
100
AcDbEntity
  8
SEATOSAE
100
AcDbLine
 10
110.5000001204718
 20
12.99999981575308
 30
0.0
 11
110.5000001204718
 21
15.29999981575308
 31
0.0
  0
LINE
  5
674
330
655
100
AcDbEntity
  8
SEATOSAE
100
AcDbLine
 10
107.5000001204718
 20
4.999999815753085
 30
0.0
 11
117.5000001204719
 21
4.999999815753085
 31
0.0
  0
LINE
  5
675
330
655
100
AcDbEntity
  8
SEATOSAE
100
AcDbLine
 10
104.0000001204719
 20
20.99999981575308
 30
0.0
 11
106.0000001204719
 21
22.99999981575308
 31
0.0
  0
LINE
  5
676
330
655
100
AcDbEntity
  8
SEATOSAE
100
AcDbLine
 10
110.5000001204718
 20
19.99999981575308
 30
0.0
 11
110.5000001204718
 21
22.99999981575308
 31
0.0
  0
LINE
  5
677
330
655
100
AcDbEntity
  8
SEATOSAE
100
AcDbLine
 10
110.5000001204718
 20
15.29999981575308
 30
0.0
 11
107.6500001204719
 21
15.29999981575308
 31
0.0
  0
LINE
  5
678
330
655
100
AcDbEntity
  8
SEATOSAE
100
AcDbLine
 10
107.6500001204719
 20
15.29999981575306
 30
0.0
 11
107.6500001204719
 21
19.99999981575308
 31
0.0
  0
LINE
  5
679
330
655
100
AcDbEntity
  8
SEATOSAE
100
AcDbLine
 10
110.5000001204718
 20
19.99999981575308
 30
0.0
 11
107.6500001204719
 21
19.99999981575308
 31
0.0
  0
LINE
  5
67A
330
655
100
AcDbEntity
  8
SEATOSAE
100
AcDbLine
 10
110.5000001204718
 20
22.99999981575308
 30
0.0
 11
106.0000001204719
 21
22.99999981575308
 31
0.0
  0
LINE
  5
67B
330
655
100
AcDbEntity
  8
SEATOSAE
100
AcDbLine
 10
125.0000001204718
 20
12.99999981575308
 30
0.0
 11
125.0000001204718
 21
2.999999815753085
 31
0.0
  0
LINE
  5
67C
330
655
100
AcDbEntity
  8
SEATOSAE
100
AcDbLine
 10
123.9000001204719
 20
1.899999815753105
 30
0.0
 11
123.9000001204719
 21
12.99999981575308
 31
0.0
  0
LINE
  5
67D
330
655
100
AcDbEntity
  8
SEATOSAE
100
AcDbLine
 10
125.0000001204718
 20
2.999999815753085
 30
0.0
 11
122.0000001204718
 21
-0.0000001842469146
 31
0.0
  0
ENDBLK
  5
67F
330
655
100
AcDbEntity
  8
0
100
AcDbBlockEnd
  0
BLOCK
  5
E09
330
E08
100
AcDbEntity
  8
0
100
AcDbBlockBegin
  2
_OPEN
 70
     0
 10
0.0
 20
0.0
 30
0.0
  3
_OPEN
  1

  0
LINE
  5
E0A
330
E08
100
AcDbEntity
  8
0
  6
ByBlock
 62
     0
100
AcDbLine
 10
-1.0
 20
0.1666666666666666
 30
0.0
 11
0.0
 21
0.0
 31
0.0
  0
LINE
  5
E0B
330
E08
100
AcDbEntity
  8
0
  6
ByBlock
 62
     0
100
AcDbLine
 10
0.0
 20
0.0
 30
0.0
 11
-1.0
 21
-0.1666666666666666
 31
0.0
  0
LINE
  5
E0C
330
E08
100
AcDbEntity
  8
0
  6
ByBlock
 62
     0
100
AcDbLine
 10
0.0
 20
0.0
 30
0.0
 11
-1.0
 21
0.0
 31
0.0
  0
ENDBLK
  5
E0D
330
E08
100
AcDbEntity
  8
0
100
AcDbBlockEnd
  0
BLOCK
  5
1065
330
1062
100
AcDbEntity
  8
0
 48
0.5
100
AcDbBlockBegin
  2
A$C61DC682B
 70
     0
 10
0.0
 20
0.0
 30
0.0
  3
A$C61DC682B
  1

  0
CIRCLE
  5
1063
330
1062
100
AcDbEntity
  8
DIMS
100
AcDbCircle
 10
10.00000077140862
 20
10.00000052275549
 30
0.0
 40
10.0
  0
MTEXT
  5
1064
330
1062
100
AcDbEntity
  8
DIMS
100
AcDbMText
 10
7.521207874550555
 20
14.26707100459839
 30
0.0
 40
9.0
 41
4.250937618072157
 71
     1
 72
     5
  1
1
 73
     1
 44
1.0
  0
ENDBLK
  5
1066
330
1062
100
AcDbEntity
  8
0
 48
0.5
100
AcDbBlockEnd
  0
BLOCK
  5
10D1
330
10CE
100
AcDbEntity
  8
0
100
AcDbBlockBegin
  2
YAJIRUSI
 70
     0
 10
0.0
 20
0.0
 30
0.0
  3
YAJIRUSI
  1

  0
LINE
  5
10CF
330
10CE
100
AcDbEntity
  8
DIMS
100
AcDbLine
 10
0.015015581919954
 20
0.0495030884343351
 30
0.0
 11
351.3409547888657
 21
0.0495030884343351
 31
0.0
  0
INSERT
  5
10D0
330
10CE
100
AcDbEntity
  8
0
  6
ByBlock
 62
   144
100
AcDbBlockReference
  2
_OPEN
 10
0.015015581919954
 20
0.0495030884343351
 30
0.0
 41
10.0
 42
10.0
 43
10.0
 50
180.0
  0
ENDBLK
  5
10D2
330
10CE
100
AcDbEntity
  8
0
100
AcDbBlockEnd
  0
BLOCK
  5
10D6
330
10D4
100
AcDbEntity
  8
0
 48
0.5
100
AcDbBlockBegin
  2
A$C0D0F6E83
 70
     0
 10
0.0
 20
0.0
 30
0.0
  3
A$C0D0F6E83
  1

  0
INSERT
  5
10D5
330
10D4
100
AcDbEntity
  8
CARCT
 48
0.5
100
AcDbBlockReference
  2
YAJIRUSI
 10
-0.0150157349569327
 20
1.617163482515138
 30
0.0
  0
ENDBLK
  5
10D7
330
10D4
100
AcDbEntity
  8
0
 48
0.5
100
AcDbBlockEnd
  0
BLOCK
  5
2B16
330
2B15
100
AcDbEntity
  8
0
 48
0.5
100
AcDbBlockBegin
  2
*D6
 70
     1
 10
0.0
 20
0.0
 30
0.0
  3
*D6
  1

  0
LINE
  5
2B17
330
2B15
100
AcDbEntity
  8
0
  6
ByBlock
 62
   144
 48
0.5
100
AcDbLine
 10
14.50000000033118
 20
121.9815316447729
 30
0.0
 11
-96.03861354728174
 21
121.9815316447729
 31
0.0
  0
LINE
  5
2B18
330
2B15
100
AcDbEntity
  8
0
  6
ByBlock
 62
   144
 48
0.5
100
AcDbLine
 10
-31.49999999966881
 20
-113.018468355227
 30
0.0
 11
-96.03861354728175
 21
-113.018468355227
 31
0.0
  0
LINE
  5
2B19
330
2B15
100
AcDbEntity
  8
0
  6
ByBlock
 62
   144
 48
0.5
100
AcDbLine
 10
-95.03861354736454
 20
116.9815316451869
 30
0.0
 11
-95.03861354736455
 21
-108.0184683556409
 31
0.0
  0
INSERT
  5
2B1A
330
2B15
100
AcDbEntity
  8
0
  6
ByBlock
 62
   144
 48
0.5
100
AcDbBlockReference
  2
_OPEN
 10
-95.03861354736454
 20
121.9815316447729
 30
0.0
 41
4.999999999586023
 42
4.999999999586023
 43
4.999999999586023
 50
90.0
  0
INSERT
  5
2B1B
330
2B15
100
AcDbEntity
  8
0
  6
ByBlock
 62
   144
 48
0.5
100
AcDbBlockReference
  2
_OPEN
 10
-95.03861354736455
 20
-113.018468355227
 30
0.0
 41
4.999999999586023
 42
4.999999999586023
 43
4.999999999586023
 50
270.0
  0
MTEXT
  5
2B1C
330
2B15
100
AcDbEntity
  8
0
  6
ByBlock
 62
     7
 48
0.5
100
AcDbMText
 10
-98.73861354705821
 20
4.481531644772991
 30
0.0
 40
4.999999999586023
 41
0.0
 71
     5
 72
     1
  1
\A1;235
 11
0.0000000000000001
 21
1.0
 31
0.0
 73
     1
 44
1.0
  0
POINT
  5
2B1D
330
2B15
100
AcDbEntity
  8
DEFPOINTS
  6
ByBlock
 62
     0
 48
0.5
100
AcDbPoint
 10
18.5
 20
121.9815316447729
 30
0.0
  0
POINT
  5
2B1E
330
2B15
100
AcDbEntity
  8
DEFPOINTS
  6
ByBlock
 62
     0
 48
0.5
100
AcDbPoint
 10
-27.5
 20
-113.018468355227
 30
0.0
  0
POINT
  5
2B1F
330
2B15
100
AcDbEntity
  8
DEFPOINTS
  6
ByBlock
 62
     0
 48
0.5
100
AcDbPoint
 10
-95.03861354736455
 20
-113.018468355227
 30
0.0
  0
ENDBLK
  5
2B20
330
2B15
100
AcDbEntity
  8
0
 48
0.5
100
AcDbBlockEnd
  0
BLOCK
  5
2B30
330
2B2F
100
AcDbEntity
  8
0
 48
0.5
100
AcDbBlockBegin
  2
*D7
 70
     1
 10
0.0
 20
0.0
 30
0.0
  3
*D7
  1

  0
LINE
  5
2B31
330
2B2F
100
AcDbEntity
  8
0
  6
ByBlock
 62
   144
 48
0.5
100
AcDbLine
 10
-4.204251181822058
 20
198.4758354395927
 30
0.0
 11
74.20425118182206
 21
383.5517840591345
 31
0.0
  0
MTEXT
  5
2B32
330
2B2F
100
AcDbEntity
  8
0
  6
ByBlock
 62
     7
 48
0.5
100
AcDbMText
 10
51.28648202756948
 20
346.2623298378994
 30
0.0
 40
4.999999999586022
 41
0.0
 71
     5
 72
     1
  1
\A1;\U+2205211
 11
0.3900920515588115
 21
0.9207758637750218
 31
0.0
 73
     1
 44
1.0
  0
INSERT
  5
2B33
330
2B2F
100
AcDbEntity
  8
0
  6
ByBlock
 62
   144
 48
0.5
100
AcDbBlockReference
  2
_OPEN
 10
-6.154711439454629
 20
193.8719561210987
 30
0.0
 41
4.999999999586022
 42
4.999999999586022
 43
4.999999999586022
 50
247.0397727615205
  0
INSERT
  5
2B34
330
2B2F
100
AcDbEntity
  8
0
  6
ByBlock
 62
   144
 48
0.5
100
AcDbBlockReference
  2
_OPEN
 10
76.15471143945464
 20
388.1556633776284
 30
0.0
 41
4.999999999586022
 42
4.999999999586022
 43
4.999999999586022
 50
67.03977276152052
  0
POINT
  5
2B35
330
2B2F
100
AcDbEntity
  8
DEFPOINTS
  6
ByBlock
 62
     0
 48
0.5
100
AcDbPoint
 10
76.15471143945464
 20
388.1556633776284
 30
0.0
  0
POINT
  5
2B36
330
2B2F
100
AcDbEntity
  8
DEFPOINTS
  6
ByBlock
 62
     0
 48
0.5
100
AcDbPoint
 10
-6.154711439454629
 20
193.8719561210987
 30
0.0
  0
ENDBLK
  5
2B37
330
2B2F
100
AcDbEntity
  8
0
 48
0.5
100
AcDbBlockEnd
  0
BLOCK
  5
2B3A
330
2B39
100
AcDbEntity
  8
0
 48
0.5
100
AcDbBlockBegin
  2
*D8
 70
     1
 10
0.0
 20
0.0
 30
0.0
  3
*D8
  1

  0
LINE
  5
2B3B
330
2B39
100
AcDbEntity
  8
0
  6
ByBlock
 62
   144
 48
0.5
100
AcDbLine
 10
35.0
 20
174.7343512567596
 30
0.0
 11
35.0
 21
162.270134172348
 31
0.0
  0
LINE
  5
2B3C
330
2B39
100
AcDbEntity
  8
0
  6
ByBlock
 62
   144
 48
0.5
100
AcDbLine
 10
150.0
 20
208.2072679137392
 30
0.0
 11
150.0
 21
162.270134172348
 31
0.0
  0
LINE
  5
2B3D
330
2B39
100
AcDbEntity
  8
0
  6
ByBlock
 62
   144
 48
0.5
100
AcDbLine
 10
39.99999999958602
 20
163.2701341722652
 30
0.0
 11
145.0000000004139
 21
163.2701341722652
 31
0.0
  0
INSERT
  5
2B3E
330
2B39
100
AcDbEntity
  8
0
  6
ByBlock
 62
   144
 48
0.5
100
AcDbBlockReference
  2
_OPEN
 10
35.0
 20
163.2701341722652
 30
0.0
 41
4.999999999586022
 42
4.999999999586022
 43
4.999999999586022
 50
180.0
  0
INSERT
  5
2B3F
330
2B39
100
AcDbEntity
  8
0
  6
ByBlock
 62
   144
 48
0.5
100
AcDbBlockReference
  2
_OPEN
 10
150.0
 20
163.2701341722652
 30
0.0
 41
4.999999999586022
 42
4.999999999586022
 43
4.999999999586022
  0
MTEXT
  5
2B40
330
2B39
100
AcDbEntity
  8
0
  6
ByBlock
 62
     7
 48
0.5
100
AcDbMText
 10
92.5
 20
166.9701341719588
 30
0.0
 40
4.999999999586022
 41
0.0
 71
     5
 72
     1
  1
\A1;115
 73
     1
 44
1.0
  0
POINT
  5
2B41
330
2B39
100
AcDbEntity
  8
DEFPOINTS
  6
ByBlock
 62
     0
 48
0.5
100
AcDbPoint
 10
35.0
 20
178.7343512564284
 30
0.0
  0
POINT
  5
2B42
330
2B39
100
AcDbEntity
  8
DEFPOINTS
  6
ByBlock
 62
     0
 48
0.5
100
AcDbPoint
 10
150.0
 20
212.207267913408
 30
0.0
  0
POINT
  5
2B43
330
2B39
100
AcDbEntity
  8
DEFPOINTS
  6
ByBlock
 62
     0
 48
0.5
100
AcDbPoint
 10
150.0
 20
163.2701341722652
 30
0.0
  0
ENDBLK
  5
2B44
330
2B39
100
AcDbEntity
  8
0
 48
0.5
100
AcDbBlockEnd
  0
BLOCK
  5
2B60
330
2B46
100
AcDbEntity
  8
0
 48
0.5
100
AcDbBlockBegin
  2
*D9
 70
     1
 10
0.0
 20
0.0
 30
0.0
  3
*D9
  1

  0
LINE
  5
2B61
330
2B46
100
AcDbEntity
  8
0
  6
ByBlock
 62
   144
 48
0.5
100
AcDbLine
 10
35.0
 20
174.7343512567596
 30
0.0
 11
35.0
 21
148.8058252731202
 31
0.0
  0
LINE
  5
2B62
330
2B46
100
AcDbEntity
  8
0
  6
ByBlock
 62
   144
 48
0.5
100
AcDbLine
 10
-70.5
 20
287.0138097496948
 30
0.0
 11
-70.50000000000001
 21
148.8058252731202
 31
0.0
  0
LINE
  5
2B63
330
2B46
100
AcDbEntity
  8
0
  6
ByBlock
 62
   144
 48
0.5
100
AcDbLine
 10
30.00000000041397
 20
149.8058252730374
 30
0.0
 11
-65.50000000041399
 21
149.8058252730374
 31
0.0
  0
INSERT
  5
2B64
330
2B46
100
AcDbEntity
  8
0
  6
ByBlock
 62
   144
 48
0.5
100
AcDbBlockReference
  2
_OPEN
 10
35.0
 20
149.8058252730374
 30
0.0
 41
4.999999999586022
 42
4.999999999586022
 43
4.999999999586022
  0
INSERT
  5
2B65
330
2B46
100
AcDbEntity
  8
0
  6
ByBlock
 62
   144
 48
0.5
100
AcDbBlockReference
  2
_OPEN
 10
-70.50000000000001
 20
149.8058252730374
 30
0.0
 41
4.999999999586022
 42
4.999999999586022
 43
4.999999999586022
 50
180.0
  0
MTEXT
  5
2B66
330
2B46
100
AcDbEntity
  8
0
  6
ByBlock
 62
     7
 48
0.5
100
AcDbMText
 10
-17.75
 20
153.5058252727311
 30
0.0
 40
4.999999999586022
 41
0.0
 71
     5
 72
     1
  1
\A1;105.5
 73
     1
 44
1.0
  0
POINT
  5
2B67
330
2B46
100
AcDbEntity
  8
DEFPOINTS
  6
ByBlock
 62
     0
 48
0.5
100
AcDbPoint
 10
35.0
 20
178.7343512564284
 30
0.0
  0
POINT
  5
2B68
330
2B46
100
AcDbEntity
  8
DEFPOINTS
  6
ByBlock
 62
     0
 48
0.5
100
AcDbPoint
 10
-70.5
 20
291.0138097493636
 30
0.0
  0
POINT
  5
2B69
330
2B46
100
AcDbEntity
  8
DEFPOINTS
  6
ByBlock
 62
     0
 48
0.5
100
AcDbPoint
 10
-70.50000000000001
 20
149.8058252730374
 30
0.0
  0
ENDBLK
  5
2B6A
330
2B46
100
AcDbEntity
  8
0
 48
0.5
100
AcDbBlockEnd
  0
BLOCK
  5
2B54
330
2B53
100
AcDbEntity
  8
0
 48
0.5
100
AcDbBlockBegin
  2
*D10
 70
     1
 10
0.0
 20
0.0
 30
0.0
  3
*D10
  1

  0
LINE
  5
2B55
330
2B53
100
AcDbEntity
  8
0
  6
ByBlock
 62
   144
 48
0.5
100
AcDbLine
 10
35.0
 20
174.7343512567596
 30
0.0
 11
35.0
 21
148.8058252731202
 31
0.0
  0
LINE
  5
2B56
330
2B53
100
AcDbEntity
  8
0
  6
ByBlock
 62
   144
 48
0.5
100
AcDbLine
 10
220.0
 20
287.0138097496948
 30
0.0
 11
220.0
 21
148.8058252731202
 31
0.0
  0
LINE
  5
2B57
330
2B53
100
AcDbEntity
  8
0
  6
ByBlock
 62
   144
 48
0.5
100
AcDbLine
 10
39.99999999958602
 20
149.8058252730374
 30
0.0
 11
215.000000000414
 21
149.8058252730374
 31
0.0
  0
INSERT
  5
2B58
330
2B53
100
AcDbEntity
  8
0
  6
ByBlock
 62
   144
 48
0.5
100
AcDbBlockReference
  2
_OPEN
 10
35.0
 20
149.8058252730374
 30
0.0
 41
4.999999999586022
 42
4.999999999586022
 43
4.999999999586022
 50
180.0
  0
INSERT
  5
2B59
330
2B53
100
AcDbEntity
  8
0
  6
ByBlock
 62
   144
 48
0.5
100
AcDbBlockReference
  2
_OPEN
 10
220.0
 20
149.8058252730374
 30
0.0
 41
4.999999999586022
 42
4.999999999586022
 43
4.999999999586022
  0
MTEXT
  5
2B5A
330
2B53
100
AcDbEntity
  8
0
  6
ByBlock
 62
     7
 48
0.5
100
AcDbMText
 10
127.5
 20
153.5058252727311
 30
0.0
 40
4.999999999586022
 41
0.0
 71
     5
 72
     1
  1
\A1;185
 73
     1
 44
1.0
  0
POINT
  5
2B5B
330
2B53
100
AcDbEntity
  8
DEFPOINTS
  6
ByBlock
 62
     0
 48
0.5
100
AcDbPoint
 10
35.0
 20
178.7343512564284
 30
0.0
  0
POINT
  5
2B5C
330
2B53
100
AcDbEntity
  8
DEFPOINTS
  6
ByBlock
 62
     0
 48
0.5
100
AcDbPoint
 10
220.0
 20
291.0138097493636
 30
0.0
  0
POINT
  5
2B5D
330
2B53
100
AcDbEntity
  8
DEFPOINTS
  6
ByBlock
 62
     0
 48
0.5
100
AcDbPoint
 10
220.0
 20
149.8058252730374
 30
0.0
  0
ENDBLK
  5
2B5E
330
2B53
100
AcDbEntity
  8
0
 48
0.5
100
AcDbBlockEnd
  0
BLOCK
  5
2B6C
330
2B6B
100
AcDbEntity
  8
0
 48
0.5
100
AcDbBlockBegin
  2
*D11
 70
     1
 10
0.0
 20
0.0
 30
0.0
  3
*D11
  1

  0
LINE
  5
2B6D
330
2B6B
100
AcDbEntity
  8
0
  6
ByBlock
 62
   144
 48
0.5
100
AcDbLine
 10
-70.5
 20
287.0138097496948
 30
0.0
 11
-70.50000000000001
 21
135.9832684509006
 31
0.0
  0
LINE
  5
2B6E
330
2B6B
100
AcDbEntity
  8
0
  6
ByBlock
 62
   144
 48
0.5
100
AcDbLine
 10
220.0
 20
287.0138097496948
 30
0.0
 11
220.0
 21
135.9832684509006
 31
0.0
  0
LINE
  5
2B6F
330
2B6B
100
AcDbEntity
  8
0
  6
ByBlock
 62
   144
 48
0.5
100
AcDbLine
 10
-65.50000000041399
 20
136.9832684508178
 30
0.0
 11
215.000000000414
 21
136.9832684508178
 31
0.0
  0
INSERT
  5
2B70
330
2B6B
100
AcDbEntity
  8
0
  6
ByBlock
 62
   144
 48
0.5
100
AcDbBlockReference
  2
_OPEN
 10
-70.50000000000001
 20
136.9832684508178
 30
0.0
 41
4.999999999586022
 42
4.999999999586022
 43
4.999999999586022
 50
180.0
  0
INSERT
  5
2B71
330
2B6B
100
AcDbEntity
  8
0
  6
ByBlock
 62
   144
 48
0.5
100
AcDbBlockReference
  2
_OPEN
 10
220.0
 20
136.9832684508178
 30
0.0
 41
4.999999999586022
 42
4.999999999586022
 43
4.999999999586022
  0
MTEXT
  5
2B72
330
2B6B
100
AcDbEntity
  8
0
  6
ByBlock
 62
     7
 48
0.5
100
AcDbMText
 10
74.75
 20
140.6832684505114
 30
0.0
 40
4.999999999586022
 41
0.0
 71
     5
 72
     1
  1
\A1;290.5
 73
     1
 44
1.0
  0
POINT
  5
2B73
330
2B6B
100
AcDbEntity
  8
DEFPOINTS
  6
ByBlock
 62
     0
 48
0.5
100
AcDbPoint
 10
-70.5
 20
291.0138097493636
 30
0.0
  0
POINT
  5
2B74
330
2B6B
100
AcDbEntity
  8
DEFPOINTS
  6
ByBlock
 62
     0
 48
0.5
100
AcDbPoint
 10
220.0
 20
291.0138097493636
 30
0.0
  0
POINT
  5
2B75
330
2B6B
100
AcDbEntity
  8
DEFPOINTS
  6
ByBlock
 62
     0
 48
0.5
100
AcDbPoint
 10
220.0
 20
136.9832684508178
 30
0.0
  0
ENDBLK
  5
2B76
330
2B6B
100
AcDbEntity
  8
0
 48
0.5
100
AcDbBlockEnd
  0
ENDSEC
  0
SECTION
  2
ENTITIES
  0
LINE
  5
91E
330
18
100
AcDbEntity
  8
CENTER
100
AcDbLine
 10
35.0
 20
-122.0888244222512
 30
0.0
 11
35.0
 21
130.4020199313493
 31
0.0
  0
INSERT
  5
1117
330
18
100
AcDbEntity
  8
0
  6
ByBlock
 62
   144
100
AcDbBlockReference
  2
_OPEN
 10
-3.000000000000085
 20
38.00000000000001
 30
0.0
 41
6.299999999999999
 42
6.299999999999999
 43
6.299999999999999
 50
337.2488871666893
  0
INSERT
  5
1119
330
18
100
AcDbEntity
  8
0
  6
ByBlock
 62
   144
100
AcDbBlockReference
  2
_OPEN
 10
-1.500000000000064
 20
44.50000000000006
 30
0.0
 41
6.299999999999999
 42
6.299999999999999
 43
6.299999999999999
 50
329.7903380266266
  0
INSERT
  5
111B
330
18
100
AcDbEntity
  8
0
  6
ByBlock
 62
   144
100
AcDbBlockReference
  2
_OPEN
 10
-8.735321401558939
 20
18.24045746925163
 30
0.0
 41
6.299999999999999
 42
6.299999999999999
 43
6.299999999999999
 50
336.2259794360969
  0
INSERT
  5
111D
330
18
100
AcDbEntity
  8
0
  6
ByBlock
 62
   144
100
AcDbBlockReference
  2
_OPEN
 10
-12.8745958872797
 20
-27.27430760723859
 30
0.0
 41
6.299999999999999
 42
6.299999999999999
 43
6.299999999999999
 50
320.8369738847618
  0
INSERT
  5
111F
330
18
100
AcDbEntity
  8
0
  6
ByBlock
 62
   144
100
AcDbBlockReference
  2
_OPEN
 10
-27.5000000000001
 20
-32.00000000000005
 30
0.0
 41
6.299999999999999
 42
6.299999999999999
 43
6.299999999999999
 50
322.1030991893884
  0
INSERT
  5
1121
330
18
100
AcDbEntity
  8
0
  6
ByBlock
 62
   144
100
AcDbBlockReference
  2
_OPEN
 10
-67.66176938572009
 20
-24.72334102224243
 30
0.0
 41
6.299999999999999
 42
6.299999999999999
 43
6.299999999999999
 50
315.8627556424975
  0
INSERT
  5
1130
330
18
100
AcDbEntity
  8
0
  6
ByBlock
 62
   144
100
AcDbBlockReference
  2
_OPEN
 10
39.0
 20
140.5
 30
0.0
 41
6.299999999999999
 42
6.299999999999999
 43
6.299999999999999
 50
200.9648738691437
  0
INSERT
  5
1132
330
18
100
AcDbEntity
  8
0
  6
ByBlock
 62
   144
100
AcDbBlockReference
  2
_OPEN
 10
58.97915761656363
 20
129.5
 30
0.0
 41
6.299999999999999
 42
6.299999999999999
 43
6.299999999999999
 50
199.40374986985
  0
INSERT
  5
1134
330
18
100
AcDbEntity
  8
0
  6
ByBlock
 62
   144
100
AcDbBlockReference
  2
_OPEN
 10
69.24999999999994
 20
116.7499999999999
 30
0.0
 41
6.299999999999999
 42
6.299999999999999
 43
6.299999999999999
 50
194.3461342147205
  0
INSERT
  5
1136
330
18
100
AcDbEntity
  8
0
  6
ByBlock
 62
   144
100
AcDbBlockReference
  2
_OPEN
 10
87.62500000000001
 20
75.99999999999994
 30
0.0
 41
6.299999999999999
 42
6.299999999999999
 43
6.299999999999999
 50
242.6305440654082
  0
INSERT
  5
1AA0
330
18
100
AcDbEntity
  8
0
  6
ByBlock
 62
   144
100
AcDbBlockReference
  2
_OPEN
 10
125.0
 20
448.9143737364091
 30
0.0
 41
6.4
 42
6.4
 43
6.4
 50
260.2500073461909
  0
INSERT
  5
1AA3
330
18
100
AcDbEntity
  8
0
  6
ByBlock
 62
   144
100
AcDbBlockReference
  2
_OPEN
 10
127.4999999999999
 20
22.50000000000005
 30
0.0
 41
6.4
 42
6.4
 43
6.4
 50
281.2087648856296
  0
INSERT
  5
1AA5
330
18
100
AcDbEntity
  8
0
  6
ByBlock
 62
   144
100
AcDbBlockReference
  2
_OPEN
 10
161.9999999999999
 20
66.49999999999995
 30
0.0
 41
6.4
 42
6.4
 43
6.4
 50
352.8842946447856
  0
INSERT
  5
1AA7
330
18
100
AcDbEntity
  8
0
  6
ByBlock
 62
   144
100
AcDbBlockReference
  2
_OPEN
 10
105.4013984392897
 20
18.3001237051096
 30
0.0
 41
6.4
 42
6.4
 43
6.4
 50
276.6480104378977
  0
INSERT
  5
1AAC
330
18
100
AcDbEntity
  8
0
  6
ByBlock
 62
   144
100
AcDbBlockReference
  2
_OPEN
 10
194.542356537333
 20
49.30752077813305
 30
0.0
 41
6.4
 42
6.4
 43
6.4
 50
178.9550421051724
  0
INSERT
  5
1AAE
330
18
100
AcDbEntity
  8
0
  6
ByBlock
 62
   144
100
AcDbBlockReference
  2
_OPEN
 10
208.0
 20
56.9
 30
0.0
 41
6.4
 42
6.4
 43
6.4
 50
199.372439953389
  0
INSERT
  5
1AB0
330
18
100
AcDbEntity
  8
0
  6
ByBlock
 62
   144
100
AcDbBlockReference
  2
_OPEN
 10
197.0
 20
65.34999999999998
 30
0.0
 41
6.4
 42
6.4
 43
6.4
 50
209.519982168287
  0
INSERT
  5
1AB5
330
18
100
AcDbEntity
  8
0
  6
ByBlock
 62
   144
100
AcDbBlockReference
  2
_OPEN
 10
140.4248213338828
 20
-15.32947087472824
 30
0.0
 41
6.4
 42
6.4
 43
6.4
 50
118.556482924994
  0
INSERT
  5
1AB7
330
18
100
AcDbEntity
  8
0
  6
ByBlock
 62
   144
100
AcDbBlockReference
  2
_OPEN
 10
127.8952001901304
 20
-8.852019635345229
 30
0.0
 41
6.4
 42
6.4
 43
6.4
 50
111.6873788686029
  0
INSERT
  5
1AB9
330
18
100
AcDbEntity
  8
0
  6
ByBlock
 62
   144
100
AcDbBlockReference
  2
_OPEN
 10
225.4999999999999
 20
-2.500000000000004
 30
0.0
 41
6.4
 42
6.4
 43
6.4
 50
95.99477129212608
  0
INSERT
  5
1ABB
330
18
100
AcDbEntity
  8
0
  6
ByBlock
 62
   144
100
AcDbBlockReference
  2
_OPEN
 10
198.9386313125214
 20
-24.40297333813669
 30
0.0
 41
6.4
 42
6.4
 43
6.4
 50
104.2819045264152
  0
INSERT
  5
1AC1
330
18
100
AcDbEntity
  8
0
  6
ByBlock
 62
   144
100
AcDbBlockReference
  2
_OPEN
 10
446.2475357732671
 20
17.56412962755397
 30
0.0
 41
6.4
 42
6.4
 43
6.4
 50
101.3172591322004
  0
INSERT
  5
1AC3
330
18
100
AcDbEntity
  8
0
  6
ByBlock
 62
   144
100
AcDbBlockReference
  2
_OPEN
 10
409.0265518962207
 20
-30.49999999999997
 30
0.0
 41
6.4
 42
6.4
 43
6.4
 50
125.0282093871258
  0
INSERT
  5
1AC7
330
18
100
AcDbEntity
  8
0
  6
ByBlock
 62
   144
100
AcDbBlockReference
  2
_OPEN
 10
385.2912577785737
 20
93.99999999999996
 30
0.0
 41
6.4
 42
6.4
 43
6.4
 50
11.63962941687033
  0
INSERT
  5
1AC9
330
18
100
AcDbEntity
  8
0
  6
ByBlock
 62
   144
100
AcDbBlockReference
  2
_OPEN
 10
384.9424419445999
 20
124.0587304035675
 30
0.0
 41
6.4
 42
6.4
 43
6.4
 50
21.62055711222062
  0
LINE
  5
2306
330
18
100
AcDbEntity
  8
BODY
 48
0.5
100
AcDbLine
 10
140.5
 20
-110.018468355227
 30
0.0
 11
140.5
 21
-92.01846835522701
 31
0.0
  0
LINE
  5
2307
330
18
100
AcDbEntity
  8
BODY
 48
0.5
100
AcDbLine
 10
140.5
 20
-92.01846835522701
 30
0.0
 11
89.50000000000001
 21
-92.01846835522701
 31
0.0
  0
LINE
  5
2308
330
18
100
AcDbEntity
  8
BODY
 48
0.5
100
AcDbLine
 10
-70.5
 20
-92.01846835522701
 30
0.0
 11
-70.5
 21
-110.018468355227
 31
0.0
  0
LINE
  5
2309
330
18
100
AcDbEntity
  8
BODY
 48
0.5
100
AcDbLine
 10
-70.5
 20
-110.018468355227
 30
0.0
 11
64.24458810058268
 21
-110.018468355227
 31
0.0
  0
LINE
  5
230A
330
18
100
AcDbEntity
  8
BODY
 48
0.5
100
AcDbLine
 10
-27.5
 20
-113.018468355227
 30
0.0
 11
97.5
 21
-113.018468355227
 31
0.0
  0
LINE
  5
230D
330
18
100
AcDbEntity
  8
BODY
 48
0.5
100
AcDbLine
 10
97.5
 20
-113.018468355227
 30
0.0
 11
100.5
 21
-110.018468355227
 31
0.0
  0
LINE
  5
230E
330
18
100
AcDbEntity
  8
BODY
 48
0.5
100
AcDbLine
 10
-27.5
 20
-113.018468355227
 30
0.0
 11
-30.5
 21
-110.018468355227
 31
0.0
  0
LINE
  5
230F
330
18
100
AcDbEntity
  8
CENTER
100
AcDbLine
 10
119.0
 20
-113.018468355227
 30
0.0
 11
119.0
 21
-85.62452145062001
 31
0.0
  0
LINE
  5
2310
330
18
100
AcDbEntity
  8
CENTER
100
AcDbLine
 10
-49.0
 20
-113.018468355227
 30
0.0
 11
-49.0
 21
-85.62452145062001
 31
0.0
  0
LINE
  5
2312
330
18
100
AcDbEntity
  8
BODY
 48
0.5
100
AcDbLine
 10
72.5
 20
-113.018468355227
 30
0.0
 11
72.50000000000001
 21
-74.81846835522701
 31
0.0
  0
LINE
  5
2314
330
18
100
AcDbEntity
  8
BODY
 48
0.5
100
AcDbLine
 10
-2.499999999999999
 20
-108.172931902503
 30
0.0
 11
-2.5
 21
-113.018468355227
 31
0.0
  0
LINE
  5
2315
330
18
100
AcDbEntity
  8
BODY
 48
0.5
100
AcDbLine
 10
100.5
 20
-110.018468355227
 30
0.0
 11
140.5
 21
-110.018468355227
 31
0.0
  0
LINE
  5
2316
330
18
100
AcDbEntity
  8
BODY
 48
0.5
100
AcDbLine
 10
48.70233735117152
 20
-92.01846835522701
 30
0.0
 11
-70.5
 21
-92.01846835522701
 31
0.0
  0
LINE
  5
23D8
330
18
100
AcDbEntity
  8
SHAFT
 48
0.5
100
AcDbLine
 10
45.0
 20
-45.51846835522701
 30
0.0
 11
45.0
 21
-48.01846835522701
 31
0.0
  0
LINE
  5
23D9
330
18
100
AcDbEntity
  8
SHAFT
 48
0.5
100
AcDbLine
 10
48.0
 20
-45.51846835522701
 30
0.0
 11
35.0
 21
-45.51846835522701
 31
0.0
  0
LINE
  5
23DC
330
18
100
AcDbEntity
  8
SHAFT
 48
0.5
100
AcDbLine
 10
46.0
 20
-45.51846835522701
 30
0.0
 11
46.0
 21
-33.88891469597955
 31
0.0
  0
LINE
  5
23DD
330
18
100
AcDbEntity
  8
SHAFT
 48
0.5
100
AcDbLine
 10
48.0
 20
-45.51846835522701
 30
0.0
 11
48.0
 21
-33.99001299492563
 31
0.0
  0
LINE
  5
23FF
330
18
100
AcDbEntity
  8
SHAFT
 48
0.5
100
AcDbLine
 10
45.0
 20
56.98153164477298
 30
0.0
 11
45.0
 21
51.98153164477296
 31
0.0
  0
LINE
  5
2410
330
18
100
AcDbEntity
  8
SEATOSAE
 48
0.5
100
AcDbLine
 10
6.0
 20
45.98153164477295
 30
0.0
 11
6.0
 21
51.98153164477296
 31
0.0
  0
LINE
  5
2411
330
18
100
AcDbEntity
  8
SEATOSAE
 48
0.5
100
AcDbLine
 10
6.0
 20
51.98153164477296
 30
0.0
 11
35.0
 21
51.98153164477296
 31
0.0
  0
LINE
  5
2412
330
18
100
AcDbEntity
  8
SEATOSAE
 48
0.5
100
AcDbLine
 10
64.0
 20
51.98153164477296
 30
0.0
 11
64.0
 21
45.98153164477295
 31
0.0
  0
LINE
  5
2416
330
18
100
AcDbEntity
  8
SEATOSAE
 48
0.5
100
AcDbLine
 10
35.0
 20
51.98153164477296
 30
0.0
 11
64.0
 21
51.98153164477296
 31
0.0
  0
LINE
  5
246C
330
18
100
AcDbEntity
  8
CENTER
100
AcDbLine
 10
150.0
 20
-12.49705429429582
 30
0.0
 11
150.0
 21
113.7483685883755
 31
0.0
  0
LINE
  5
24A9
330
18
100
AcDbEntity
  8
BODY
 48
0.5
100
AcDbLine
 10
181.75
 20
89.98153164477299
 30
0.0
 11
181.75
 21
76.98153164477298
 31
0.0
  0
LINE
  5
24BC
330
18
100
AcDbEntity
  8
BODY
 48
0.5
100
AcDbLine
 10
118.25
 20
89.98153164477299
 30
0.0
 11
118.25
 21
76.98153164477301
 31
0.0
  0
LINE
  5
24C0
330
18
100
AcDbEntity
  8
BODY
 48
0.5
100
AcDbLine
 10
184.25
 20
105.4815316447729
 30
0.0
 11
115.7499999999999
 21
105.4815316447729
 31
0.0
  0
LINE
  5
24C1
330
18
100
AcDbEntity
  8
BODY
 48
0.5
100
AcDbLine
 10
115.7499999999999
 20
105.4815316447729
 30
0.0
 11
115.7499999999999
 21
89.98153164477299
 31
0.0
  0
LINE
  5
24C3
330
18
100
AcDbEntity
  8
BODY
 48
0.5
100
AcDbLine
 10
184.25
 20
89.98153164477299
 30
0.0
 11
184.25
 21
105.4815316447729
 31
0.0
  0
LINE
  5
24C6
330
18
100
AcDbEntity
  8
BODY
 48
0.5
100
AcDbLine
 10
115.7499999999999
 20
89.98153164477287
 30
0.0
 11
184.25
 21
89.98153164477299
 31
0.0
  0
LINE
  5
24CA
330
18
100
AcDbEntity
  8
BODY
 48
0.5
100
AcDbLine
 10
114.7499999999999
 20
56.98153164477298
 30
0.0
 11
114.7499999999999
 21
76.98153164477298
 31
0.0
  0
LINE
  5
24CD
330
18
100
AcDbEntity
  8
BODY
 48
0.5
100
AcDbLine
 10
80.0
 20
50.98153164477303
 30
0.0
 11
220.0
 21
50.98153164477299
 31
0.0
  0
LINE
  5
24CF
330
18
100
AcDbEntity
  8
BODY
 48
0.5
100
AcDbLine
 10
220.0
 20
56.981531644773
 30
0.0
 11
80.0
 21
56.98153164477297
 31
0.0
  0
LINE
  5
24D0
330
18
100
AcDbEntity
  8
BODY
 48
0.5
100
AcDbLine
 10
185.25
 20
56.98153164477298
 30
0.0
 11
185.25
 21
76.98153164477298
 31
0.0
  0
LINE
  5
24D1
330
18
100
AcDbEntity
  8
BODY
 48
0.5
100
AcDbLine
 10
185.25
 20
76.98153164477298
 30
0.0
 11
114.7499999999999
 21
76.98153164477301
 31
0.0
  0
LINE
  5
2653
330
18
100
AcDbEntity
  8
CENTER
100
AcDbLine
 10
232.3171805395345
 20
291.0138097493636
 30
0.0
 11
-78.59923322513896
 21
291.0138097493636
 31
0.0
  0
LINE
  5
272D
330
18
100
AcDbEntity
  8
BODY
 48
0.5
100
AcDbLine
 10
18.5
 20
121.9815316447729
 30
0.0
 11
51.5
 21
121.9815316447729
 31
0.0
  0
LINE
  5
2730
330
18
100
AcDbEntity
  8
BODY
 48
0.5
100
AcDbLine
 10
54.0
 20
71.98153164477298
 30
0.0
 11
51.5
 21
121.9815316447729
 31
0.0
  0
LINE
  5
2735
330
18
100
AcDbEntity
  8
BODY
 48
0.5
100
AcDbLine
 10
12.5
 20
56.98153164477298
 30
0.0
 11
57.5
 21
56.98153164477298
 31
0.0
  0
LINE
  5
2736
330
18
100
AcDbEntity
  8
BODY
 48
0.5
100
AcDbLine
 10
57.5
 20
56.98153164477298
 30
0.0
 11
57.5
 21
62.98153164477298
 31
0.0
  0
LINE
  5
2738
330
18
100
AcDbEntity
  8
BODY
 48
0.5
100
AcDbLine
 10
70.0
 20
62.98153164477298
 30
0.0
 11
70.0
 21
71.98153164477298
 31
0.0
  0
LINE
  5
273A
330
18
100
AcDbEntity
  8
BODY
 48
0.5
100
AcDbLine
 10
16.0
 20
71.98153164477298
 30
0.0
 11
18.5
 21
121.9815316447729
 31
0.0
  0
LINE
  5
273B
330
18
100
AcDbEntity
  8
BODY
 48
0.5
100
AcDbLine
 10
0.0
 20
71.98153164477298
 30
0.0
 11
70.0
 21
71.981531644773
 31
0.0
  0
LINE
  5
273C
330
18
100
AcDbEntity
  8
BODY
 48
0.5
100
AcDbLine
 10
0.0
 20
62.98153164477298
 30
0.0
 11
0.0
 21
71.98153164477298
 31
0.0
  0
LINE
  5
273D
330
18
100
AcDbEntity
  8
BODY
 48
0.5
100
AcDbLine
 10
12.5
 20
56.98153164477298
 30
0.0
 11
12.5
 21
62.98153164477298
 31
0.0
  0
LINE
  5
273E
330
18
100
AcDbEntity
  8
BODY
 48
0.5
100
AcDbLine
 10
70.0
 20
62.98153164477298
 30
0.0
 11
0.0
 21
62.98153164477298
 31
0.0
  0
LINE
  5
273F
330
18
100
AcDbEntity
  8
BODY
 48
0.5
100
AcDbLine
 10
18.5
 20
121.9815316447729
 30
0.0
 11
18.5
 21
71.98153164477298
 31
0.0
  0
LINE
  5
2740
330
18
100
AcDbEntity
  8
BODY
 48
0.5
100
AcDbLine
 10
18.5
 20
71.98153164477298
 30
0.0
 11
51.5
 21
121.9815316447729
 31
0.0
  0
LINE
  5
2741
330
18
100
AcDbEntity
  8
BODY
 48
0.5
100
AcDbLine
 10
51.5
 20
71.98153164477298
 30
0.0
 11
18.5
 21
121.9815316447729
 31
0.0
  0
LINE
  5
29A8
330
18
100
AcDbEntity
  8
BODY
 48
0.5
100
AcDbLine
 10
-36.0
 20
9.981531644772985
 30
0.0
 11
197.5
 21
9.981531644772985
 31
0.0
  0
LINE
  5
29C4
330
18
100
AcDbEntity
  8
BODY
 48
0.5
100
AcDbLine
 10
-34.5
 20
-45.74520973930661
 30
0.0
 11
-34.49999999999999
 21
-10.01846835522701
 31
0.0
  0
LINE
  5
29C5
330
18
100
AcDbEntity
  8
BODY
 48
0.5
100
AcDbLine
 10
-29.79916022993794
 20
-63.2889825994186
 30
0.0
 11
-34.5
 21
-45.74520973930661
 31
0.0
  0
ARC
  5
29C6
330
18
100
AcDbEntity
  8
BODY
 48
0.5
100
AcDbCircle
 10
-13.8613840961683
 20
-59.01846835522701
 30
0.0
 40
16.5
100
AcDbArc
 50
194.9999999999999
 51
244.0784088747306
  0
LINE
  5
29C7
330
18
100
AcDbEntity
  8
BODY
 48
0.5
100
AcDbLine
 10
-17.65881929670801
 20
-75.51846835522702
 30
0.0
 11
35.0
 21
-75.51846835522701
 31
0.0
  0
ARC
  5
29C8
330
18
100
AcDbEntity
  8
BODY
 48
0.5
100
AcDbCircle
 10
137.0
 20
-22.01846835522701
 30
0.0
 40
53.5
100
AcDbArc
 50
270.0
 51
0.0
  0
LINE
  5
29C9
330
18
100
AcDbEntity
  8
BODY
 48
0.5
100
AcDbLine
 10
190.5
 20
-6.018468355227015
 30
0.0
 11
190.5
 21
-22.018468355227
 31
0.0
  0
LINE
  5
29CB
330
18
100
AcDbEntity
  8
BODY
 48
0.5
100
AcDbLine
 10
-36.0
 20
25.98153164477298
 30
0.0
 11
-36.0
 21
-10.01846835522701
 31
0.0
  0
LINE
  5
29CC
330
18
100
AcDbEntity
  8
BODY
 48
0.5
100
AcDbLine
 10
-36.0
 20
-10.01846835522701
 30
0.0
 11
106.0
 21
-10.01846835522719
 31
0.0
  0
LINE
  5
29CF
330
18
100
AcDbEntity
  8
BODY
 48
0.5
100
AcDbLine
 10
81.50000000000002
 20
-84.01846835522702
 30
0.0
 11
81.50000000000002
 21
-83.51846835522703
 31
0.0
  0
ARC
  5
29DD
330
18
100
AcDbEntity
  8
BODY
 48
0.5
100
AcDbCircle
 10
89.50000000000001
 20
-83.51846835522703
 30
0.0
 40
8.0
100
AcDbArc
 50
90.0
 51
180.0
  0
ARC
  5
29DE
330
18
100
AcDbEntity
  8
BODY
 48
0.5
100
AcDbCircle
 10
89.50000000000001
 20
-84.01846835522702
 30
0.0
 40
8.0
100
AcDbArc
 50
179.9999999999999
 51
270.0
  0
ARC
  5
29DF
330
18
100
AcDbEntity
  8
BODY
 48
0.5
100
AcDbCircle
 10
-19.50000000000001
 20
-83.51846835522703
 30
0.0
 40
8.0
100
AcDbArc
 50
0.000000000000007
 51
64.07840887473064
  0
ARC
  5
29E0
330
18
100
AcDbEntity
  8
BODY
 48
0.5
100
AcDbCircle
 10
-19.50000000000001
 20
-84.01846835522702
 30
0.0
 40
8.0
100
AcDbArc
 50
270.0
 51
0.0000000000000325
  0
LINE
  5
29E1
330
18
100
AcDbEntity
  8
BODY
 48
0.5
100
AcDbLine
 10
-11.50000000000001
 20
-84.01846835522702
 30
0.0
 11
-11.50000000000001
 21
-83.51846835522703
 31
0.0
  0
LINE
  5
29E2
330
18
100
AcDbEntity
  8
BODY
 48
0.5
100
AcDbLine
 10
-21.07420636067238
 20
-73.85845470901704
 30
0.0
 11
-16.00287405357379
 21
-76.32332345641974
 31
0.0
  0
LINE
  5
29E4
330
18
100
AcDbEntity
  8
BODY
 48
0.5
100
AcDbLine
 10
72.50000000000001
 20
-74.81846835522701
 30
0.0
 11
77.0033320996791
 21
-67.01846835522701
 31
0.0
  0
LINE
  5
29E7
330
18
100
AcDbEntity
  8
BODY
 48
0.5
100
AcDbLine
 10
197.5
 20
9.981531644772985
 30
0.0
 11
197.5
 21
-6.018468355227014
 31
0.0
  0
LINE
  5
29E8
330
18
100
AcDbEntity
  8
BODY
 48
0.5
100
AcDbLine
 10
197.5
 20
-6.018468355227014
 30
0.0
 11
110.0
 21
-6.018468355227025
 31
0.0
  0
LINE
  5
29EA
330
18
100
AcDbEntity
  8
BODY
 48
0.5
100
AcDbLine
 10
-36.0
 20
25.98153164477298
 30
0.0
 11
106.0
 21
25.98153164477298
 31
0.0
  0
LINE
  5
29F8
330
18
100
AcDbEntity
  8
BODY
 48
0.5
100
AcDbLine
 10
106.0
 20
-10.01846835522702
 30
0.0
 11
106.0
 21
-10.01846835522719
 31
0.0
  0
LINE
  5
29FA
330
18
100
AcDbEntity
  8
BODY
 48
0.5
100
AcDbLine
 10
0.0
 20
25.98153164477298
 30
0.0
 11
0.0
 21
45.98153164477298
 31
0.0
  0
LINE
  5
29FB
330
18
100
AcDbEntity
  8
BODY
 48
0.5
100
AcDbLine
 10
0.0
 20
45.98153164477298
 30
0.0
 11
70.0
 21
45.98153164477298
 31
0.0
  0
LINE
  5
29FC
330
18
100
AcDbEntity
  8
BODY
 48
0.5
100
AcDbLine
 10
70.0
 20
45.98153164477298
 30
0.0
 11
70.0
 21
25.98153164477298
 31
0.0
  0
LINE
  5
29FE
330
18
100
AcDbEntity
  8
BODY
 48
0.5
100
AcDbLine
 10
70.0
 20
43.98153164477299
 30
0.0
 11
83.0
 21
43.98153164477299
 31
0.0
  0
LINE
  5
29FF
330
18
100
AcDbEntity
  8
BODY
 48
0.5
100
AcDbLine
 10
93.0
 20
33.98153164477299
 30
0.0
 11
93.00000000000002
 21
25.98153164477298
 31
0.0
  0
ARC
  5
2A00
330
18
100
AcDbEntity
  8
BODY
 48
0.5
100
AcDbCircle
 10
83.0
 20
33.98153164477298
 30
0.0
 40
10.0
100
AcDbArc
 50
0.0000000000000509
 51
90.0
  0
CIRCLE
  5
2A02
330
18
100
AcDbEntity
  8
BODY
 48
0.5
100
AcDbCircle
 10
83.0
 20
33.98153164477298
 30
0.0
 40
4.0
  0
LINE
  5
2A04
330
18
100
AcDbEntity
  8
BODY
 48
0.5
100
AcDbLine
 10
197.0
 20
9.981531644772985
 30
0.0
 11
197.0
 21
25.98153164477298
 31
0.0
  0
LINE
  5
2A05
330
18
100
AcDbEntity
  8
BODY
 48
0.5
100
AcDbLine
 10
197.0
 20
25.98153164477298
 30
0.0
 11
103.0
 21
25.98153164477298
 31
0.0
  0
LINE
  5
2A0B
330
18
100
AcDbEntity
  8
BODY
 48
0.5
100
AcDbLine
 10
188.4999999999999
 20
25.98153164477298
 30
0.0
 11
188.4999999999999
 21
50.98153164477299
 31
0.0
  0
LINE
  5
2A0D
330
18
100
AcDbEntity
  8
BODY
 48
0.5
100
AcDbLine
 10
111.4999999999999
 20
50.98153164477299
 30
0.0
 11
111.4999999999999
 21
25.98153164477298
 31
0.0
  0
LINE
  5
2A26
330
18
100
AcDbEntity
  8
BODY
 48
0.5
100
AcDbLine
 10
-38.5
 20
-42.01846835522701
 30
0.0
 11
-38.5
 21
-72.01846835522701
 31
0.0
  0
LINE
  5
2A27
330
18
100
AcDbEntity
  8
BODY
 48
0.5
100
AcDbLine
 10
-38.5
 20
-72.01846835522701
 30
0.0
 11
-24.0225848126191
 21
-72.01846835522701
 31
0.0
  0
LINE
  5
2A28
330
18
100
AcDbEntity
  8
BODY
 48
0.5
100
AcDbLine
 10
-38.5
 20
-42.01846835522701
 30
0.0
 11
-34.49999999999999
 21
-42.01846835522701
 31
0.0
  0
LINE
  5
2A2D
330
18
100
AcDbEntity
  8
DISC
 48
0.5
100
AcDbLine
 10
59.0
 20
-48.01846835522701
 30
0.0
 11
35.0
 21
-48.01846835522701
 31
0.0
  0
LINE
  5
2A2F
330
18
100
AcDbEntity
  8
DISC
 48
0.5
100
AcDbLine
 10
35.0
 20
-59.01846835522702
 30
0.0
 11
59.0
 21
-59.01846835522701
 31
0.0
  0
LINE
  5
2A30
330
18
100
AcDbEntity
  8
DISC
 48
0.5
100
AcDbLine
 10
59.0
 20
-59.01846835522701
 30
0.0
 11
59.0
 21
-48.01846835522701
 31
0.0
  0
LINE
  5
2A31
330
18
100
AcDbEntity
  8
DISC
 48
0.5
100
AcDbLine
 10
35.0
 20
-59.01846835522701
 30
0.0
 11
80.0
 21
-59.01846835522701
 31
0.0
  0
LINE
  5
2A32
330
18
100
AcDbEntity
  8
DISC
 48
0.5
100
AcDbLine
 10
80.0
 20
-59.01846835522701
 30
0.0
 11
80.0
 21
-63.01846835522701
 31
0.0
  0
LINE
  5
2A33
330
18
100
AcDbEntity
  8
DISC
 48
0.5
100
AcDbLine
 10
80.0
 20
-63.01846835522701
 30
0.0
 11
71.91709623134522
 21
-77.01846835522701
 31
0.0
  0
LINE
  5
2A34
330
18
100
AcDbEntity
  8
DISC
 48
0.5
100
AcDbLine
 10
35.0
 20
-79.01846835522701
 30
0.0
 11
68.45299461620747
 21
-79.01846835522701
 31
0.0
  0
ARC
  5
2A35
330
18
100
AcDbEntity
  8
DISC
 48
0.5
100
AcDbCircle
 10
68.45299461620747
 20
-75.01846835522702
 30
0.0
 40
4.0
100
AcDbArc
 50
270.0
 51
330.0
  0
LINE
  5
2A38
330
18
100
AcDbEntity
  8
BODY
 48
0.5
100
AcDbLine
 10
77.0033320996791
 20
-67.01846835522701
 30
0.0
 11
134.2036260097695
 21
-67.01846835522701
 31
0.0
  0
LINE
  5
2A39
330
18
100
AcDbEntity
  8
DISC
 48
0.5
100
AcDbLine
 10
80.0
 20
-63.01846835522701
 30
0.0
 11
35.0
 21
-63.01846835522702
 31
0.0
  0
SPLINE
  5
2A3A
330
18
100
AcDbEntity
  8
BODY
 48
0.5
100
AcDbSpline
210
0.0
220
0.0
230
1.0
 70
     8
 71
     3
 72
    13
 73
     9
 74
     0
 42
0.0000000001
 43
0.0000000001
 40
5.607445833746504
 40
5.607445833746504
 40
5.607445833746504
 40
5.607445833746504
 40
25.69543903458861
 40
48.40928074999212
 40
63.59294784089545
 40
91.7956340455048
 40
104.2795126382594
 40
124.4073211119662
 40
124.4073211119662
 40
124.4073211119662
 40
124.4073211119662
 10
35.0
 20
-34.43904248881941
 30
0.0
 10
41.82020226948744
 20
-33.71368159535332
 30
0.0
 10
56.1940998487773
 20
-33.09101953865313
 30
0.0
 10
73.57677921261435
 20
-44.45471628732006
 30
0.0
 10
97.01328062537257
 20
-38.88952346671563
 30
0.0
 10
110.1603922950314
 20
-56.5887398943521
 30
0.0
 10
133.8525818606363
 20
-55.2783836419417
 30
0.0
 10
134.7118630476829
 20
-67.16697197039346
 30
0.0
 10
134.2883435295229
 20
-75.51846835522701
 30
0.0
  0
LINE
  5
2A40
330
18
100
AcDbEntity
  8
SHAFT
 48
0.5
100
AcDbLine
 10
25.0
 20
51.98153164477296
 30
0.0
 11
25.0
 21
56.98153164477298
 31
0.0
  0
LINE
  5
2A41
330
18
100
AcDbEntity
  8
BODY
 48
0.5
100
AcDbLine
 10
89.50000000000001
 20
-75.51846835522701
 30
0.0
 11
137.0
 21
-75.51846835522701
 31
0.0
  0
LINE
  5
2A43
330
18
100
AcDbEntity
  8
BODY
 48
0.5
100
AcDbLine
 10
51.5
 20
121.9815316447729
 30
0.0
 11
51.5
 21
71.98153164477298
 31
0.0
  0
LINE
  5
2A44
330
18
100
AcDbEntity
  8
DISC
 48
0.5
100
AcDbLine
 10
35.0
 20
-79.01846835522701
 30
0.0
 11
59.0
 21
-79.01846835522701
 31
0.0
  0
LINE
  5
2A45
330
18
100
AcDbEntity
  8
DISC
 48
0.5
100
AcDbLine
 10
59.0
 20
-79.01846835522701
 30
0.0
 11
59.0
 21
-85.01846835522702
 31
0.0
  0
LINE
  5
2A46
330
18
100
AcDbEntity
  8
DISC
 48
0.5
100
AcDbLine
 10
59.0
 20
-85.01846835522702
 30
0.0
 11
40.84287961160417
 21
-85.01846835522702
 31
0.0
  0
ARC
  5
2A47
330
18
100
AcDbEntity
  8
BODY
 48
0.5
100
AcDbCircle
 10
110.0
 20
-10.01846835522702
 30
0.0
 40
4.0
100
AcDbArc
 50
90.0
 51
180.0
  0
LINE
  5
2A48
330
18
100
AcDbEntity
  8
BODY
 48
0.5
100
AcDbLine
 10
106.0
 20
-10.01846835522719
 30
0.0
 11
106.0
 21
25.98153164477298
 31
0.0
  0
SPLINE
  5
2A4D
330
18
100
AcDbEntity
  8
BODY
 48
0.5
100
AcDbSpline
210
0.0
220
0.0
230
1.0
 70
     8
 71
     3
 72
    13
 73
     9
 74
     0
 42
0.0000000001
 43
0.0000000001
 40
29.2778506927089
 40
29.2778506927089
 40
29.2778506927089
 40
29.2778506927089
 40
35.46136116225495
 40
43.25136242712451
 40
53.66410678006038
 40
57.86739843211551
 40
67.82635471654977
 40
73.22522214947955
 40
73.22522214947955
 40
73.22522214947955
 40
73.22522214947955
 10
35.00000000000567
 20
-83.85933162849704
 30
0.0
 10
37.06216504978547
 20
-84.27760293738856
 30
0.0
 10
42.06488050555893
 20
-84.27466753688099
 30
0.0
 10
46.7887964635836
 20
-91.68600938069678
 30
0.0
 10
54.35586272020463
 20
-95.17392275302171
 30
0.0
 10
55.18444846700446
 20
-104.108951751674
 30
0.0
 10
63.59793928462167
 20
-106.0146135548086
 30
0.0
 10
64.61151196765887
 20
-111.1094483183664
 30
0.0
 10
64.78447639500979
 20
-113.018468355227
 30
0.0
  0
LINE
  5
2A54
330
18
100
AcDbEntity
  8
BODY
 48
0.5
100
AcDbLine
 10
18.25
 20
275.7638097493635
 30
0.0
 11
18.25
 21
306.2638097493636
 31
0.0
  0
LINE
  5
2A55
330
18
100
AcDbEntity
  8
BODY
 48
0.5
100
AcDbLine
 10
19.75
 20
307.7638097493637
 30
0.0
 11
50.25000000000002
 21
307.7638097493636
 31
0.0
  0
LINE
  5
2A56
330
18
100
AcDbEntity
  8
BODY
 48
0.5
100
AcDbLine
 10
51.75
 20
306.2638097493636
 30
0.0
 11
51.75
 21
275.7638097493635
 31
0.0
  0
LINE
  5
2A57
330
18
100
AcDbEntity
  8
BODY
 48
0.5
100
AcDbLine
 10
50.25000000000008
 20
274.2638097493636
 30
0.0
 11
19.74999999999993
 21
274.2638097493636
 31
0.0
  0
LINE
  5
2A5B
330
18
100
AcDbEntity
  8
BODY
 48
0.5
100
AcDbLine
 10
19.0
 20
310.0138097493636
 30
0.0
 11
50.99999999999999
 21
310.0138097493636
 31
0.0
  0
LINE
  5
2A5C
330
18
100
AcDbEntity
  8
BODY
 48
0.5
100
AcDbLine
 10
54.0
 20
307.0138097493636
 30
0.0
 11
54.0
 21
275.0138097493636
 31
0.0
  0
LINE
  5
2A5D
330
18
100
AcDbEntity
  8
BODY
 48
0.5
100
AcDbLine
 10
51.0
 20
272.0138097493636
 30
0.0
 11
19.0
 21
272.0138097493636
 31
0.0
  0
LINE
  5
2A5E
330
18
100
AcDbEntity
  8
BODY
 48
0.5
100
AcDbLine
 10
16.0
 20
275.0138097493636
 30
0.0
 11
16.0
 21
307.0138097493636
 31
0.0
  0
LINE
  5
2A5F
330
18
100
AcDbEntity
  8
BODY
 48
0.5
100
AcDbLine
 10
18.25
 20
306.2638097493636
 30
0.0
 11
19.75
 21
307.7638097493637
 31
0.0
  0
LINE
  5
2A60
330
18
100
AcDbEntity
  8
BODY
 48
0.5
100
AcDbLine
 10
19.0
 20
310.0138097493636
 30
0.0
 11
16.0
 21
307.0138097493636
 31
0.0
  0
LINE
  5
2A61
330
18
100
AcDbEntity
  8
BODY
 48
0.5
100
AcDbLine
 10
19.0
 20
310.0138097493636
 30
0.0
 11
19.75
 21
307.7638097493637
 31
0.0
  0
LINE
  5
2A62
330
18
100
AcDbEntity
  8
BODY
 48
0.5
100
AcDbLine
 10
18.25
 20
306.2638097493636
 30
0.0
 11
16.0
 21
307.0138097493636
 31
0.0
  0
LINE
  5
2A63
330
18
100
AcDbEntity
  8
BODY
 48
0.5
100
AcDbLine
 10
51.0
 20
310.0138097493636
 30
0.0
 11
50.25
 21
307.7638097493637
 31
0.0
  0
LINE
  5
2A64
330
18
100
AcDbEntity
  8
BODY
 48
0.5
100
AcDbLine
 10
51.0
 20
310.0138097493636
 30
0.0
 11
54.0
 21
307.0138097493636
 31
0.0
  0
LINE
  5
2A65
330
18
100
AcDbEntity
  8
BODY
 48
0.5
100
AcDbLine
 10
51.75
 20
306.2638097493636
 30
0.0
 11
54.0
 21
307.0138097493636
 31
0.0
  0
LINE
  5
2A66
330
18
100
AcDbEntity
  8
BODY
 48
0.5
100
AcDbLine
 10
51.75
 20
306.2638097493636
 30
0.0
 11
50.25
 21
307.7638097493637
 31
0.0
  0
LINE
  5
2A67
330
18
100
AcDbEntity
  8
BODY
 48
0.5
100
AcDbLine
 10
51.0
 20
272.0138097493636
 30
0.0
 11
54.0
 21
275.0138097493636
 31
0.0
  0
LINE
  5
2A68
330
18
100
AcDbEntity
  8
BODY
 48
0.5
100
AcDbLine
 10
51.0
 20
272.0138097493636
 30
0.0
 11
50.25
 21
274.2638097493635
 31
0.0
  0
LINE
  5
2A69
330
18
100
AcDbEntity
  8
BODY
 48
0.5
100
AcDbLine
 10
51.75
 20
275.7638097493635
 30
0.0
 11
50.25
 21
274.2638097493635
 31
0.0
  0
LINE
  5
2A6A
330
18
100
AcDbEntity
  8
BODY
 48
0.5
100
AcDbLine
 10
51.75
 20
275.7638097493635
 30
0.0
 11
54.0
 21
275.0138097493636
 31
0.0
  0
LINE
  5
2A6B
330
18
100
AcDbEntity
  8
BODY
 48
0.5
100
AcDbLine
 10
19.0
 20
272.0138097493636
 30
0.0
 11
19.75
 21
274.2638097493635
 31
0.0
  0
LINE
  5
2A6C
330
18
100
AcDbEntity
  8
BODY
 48
0.5
100
AcDbLine
 10
19.0
 20
272.0138097493636
 30
0.0
 11
16.0
 21
275.0138097493636
 31
0.0
  0
LINE
  5
2A6D
330
18
100
AcDbEntity
  8
BODY
 48
0.5
100
AcDbLine
 10
18.25
 20
275.7638097493635
 30
0.0
 11
16.0
 21
275.0138097493636
 31
0.0
  0
LINE
  5
2A6E
330
18
100
AcDbEntity
  8
BODY
 48
0.5
100
AcDbLine
 10
18.25
 20
275.7638097493635
 30
0.0
 11
19.75
 21
274.2638097493635
 31
0.0
  0
CIRCLE
  5
2A6F
330
18
100
AcDbEntity
  8
BODY
 48
0.5
100
AcDbCircle
 10
35.0
 20
291.0138097493636
 30
0.0
 40
35.0
  0
LINE
  5
2A71
330
18
100
AcDbEntity
  8
BODY
 48
0.5
100
AcDbLine
 10
-36.0
 20
345.0138097493637
 30
0.0
 11
-36.0
 21
237.0138097493636
 31
0.0
  0
LINE
  5
2A72
330
18
100
AcDbEntity
  8
BODY
 48
0.5
100
AcDbLine
 10
-19.0
 20
220.0138097493636
 30
0.0
 11
89.0
 21
220.0138097493636
 31
0.0
  0
LINE
  5
2A73
330
18
100
AcDbEntity
  8
BODY
 48
0.5
100
AcDbLine
 10
106.0
 20
237.0138097493636
 30
0.0
 11
106.0
 21
265.2262158329083
 31
0.0
  0
LINE
  5
2A74
330
18
100
AcDbEntity
  8
BODY
 48
0.5
100
AcDbLine
 10
89.00000000000002
 20
362.0138097493636
 30
0.0
 11
-19.0
 21
362.0138097493637
 31
0.0
  0
ARC
  5
2A75
330
18
100
AcDbEntity
  8
BODY
 48
0.5
100
AcDbCircle
 10
-19.0
 20
345.0138097493637
 30
0.0
 40
17.0
100
AcDbArc
 50
90.0
 51
180.0
  0
ARC
  5
2A76
330
18
100
AcDbEntity
  8
BODY
 48
0.5
100
AcDbCircle
 10
89.0
 20
345.0138097493636
 30
0.0
 40
17.0
100
AcDbArc
 50
0.0
 51
89.99999999999998
  0
ARC
  5
2A77
330
18
100
AcDbEntity
  8
BODY
 48
0.5
100
AcDbCircle
 10
89.0
 20
237.0138097493636
 30
0.0
 40
17.0
100
AcDbArc
 50
270.0
 51
0.0
  0
ARC
  5
2A78
330
18
100
AcDbEntity
  8
BODY
 48
0.5
100
AcDbCircle
 10
-19.0
 20
237.0138097493636
 30
0.0
 40
17.0
100
AcDbArc
 50
180.0
 51
270.0
  0
ARC
  5
2A7B
330
18
100
AcDbEntity
  8
BODY
 48
0.5
100
AcDbCircle
 10
150.0
 20
291.0138097493636
 30
0.0
 40
51.0
100
AcDbArc
 50
149.626213800162
 51
168.8326668236061
  0
LINE
  5
2A7D
330
18
100
AcDbEntity
  8
BODY
 48
0.5
100
AcDbLine
 10
106.0
 20
316.8014036658188
 30
0.0
 11
106.0
 21
345.0138097493636
 31
0.0
  0
ARC
  5
2A83
330
18
100
AcDbEntity
  8
CENTER
 48
0.5
100
AcDbCircle
 10
35.0
 20
291.0138097493636
 30
0.0
 40
84.0
100
AcDbArc
 50
147.6974547908298
 51
212.3025452091701
  0
LWPOLYLINE
  5
2A8B
330
18
100
AcDbEntity
  8
BODY
 48
0.5
100
AcDbPolyline
 90
        6
 70
     1
 43
0.0
 10
83.24011537017758
 20
354.2802045611701
 10
77.74011537017759
 20
344.7539251195412
 10
83.24011537017758
 20
335.2276456779124
 10
94.24011537017758
 20
335.2276456779124
 10
99.74011537017759
 20
344.7539251195412
 10
94.2401153701776
 20
354.2802045611701
  0
LINE
  5
2A8F
330
18
100
AcDbEntity
  8
CENTER
100
AcDbLine
 10
102.0020128239825
 20
344.7539251195412
 30
0.0
 11
75.57213948069056
 21
344.7539251195412
 31
0.0
  0
LINE
  5
2A91
330
18
100
AcDbEntity
  8
CENTER
100
AcDbLine
 10
88.74011537017763
 20
333.5094540597761
 30
0.0
 11
88.74011537017763
 21
356.3279881022729
 31
0.0
  0
CIRCLE
  5
2A93
330
18
100
AcDbEntity
  8
BODY
 48
0.5
100
AcDbCircle
 10
88.74011537017763
 20
344.7539251195412
 30
0.0
 40
9.5
  0
CIRCLE
  5
2A94
330
18
100
AcDbEntity
  8
BODY
 48
0.5
100
AcDbCircle
 10
88.74011537017763
 20
344.7539251195412
 30
0.0
 40
6.0
  0
CIRCLE
  5
2A95
330
18
100
AcDbEntity
  8
BODY
 48
0.5
100
AcDbCircle
 10
88.74011537017763
 20
344.7539251195412
 30
0.0
 40
5.0
  0
CIRCLE
  5
2A96
330
18
100
AcDbEntity
  8
BODY
 48
0.5
100
AcDbCircle
 10
-18.74011537017763
 20
344.7539251195412
 30
0.0
 40
5.0
  0
CIRCLE
  5
2A97
330
18
100
AcDbEntity
  8
BODY
 48
0.5
100
AcDbCircle
 10
-18.74011537017763
 20
344.7539251195412
 30
0.0
 40
6.0
  0
CIRCLE
  5
2A98
330
18
100
AcDbEntity
  8
BODY
 48
0.5
100
AcDbCircle
 10
-18.74011537017763
 20
344.7539251195412
 30
0.0
 40
9.5
  0
LINE
  5
2A99
330
18
100
AcDbEntity
  8
CENTER
100
AcDbLine
 10
-18.74011537017763
 20
333.5094540597761
 30
0.0
 11
-18.74011537017763
 21
356.3279881022729
 31
0.0
  0
LWPOLYLINE
  5
2A9A
330
18
100
AcDbEntity
  8
BODY
 48
0.5
100
AcDbPolyline
 90
        6
 70
     1
 43
0.0
 10
-13.24011537017759
 20
354.2802045611701
 10
-7.740115370177591
 20
344.7539251195412
 10
-13.24011537017759
 20
335.2276456779124
 10
-24.24011537017757
 20
335.2276456779124
 10
-29.74011537017759
 20
344.7539251195412
 10
-24.2401153701776
 20
354.2802045611701
  0
LINE
  5
2A9B
330
18
100
AcDbEntity
  8
CENTER
100
AcDbLine
 10
-32.00201282398257
 20
344.7539251195412
 30
0.0
 11
-5.572139480690566
 21
344.7539251195412
 31
0.0
  0
LWPOLYLINE
  5
2A9C
330
18
100
AcDbEntity
  8
BODY
 48
0.5
100
AcDbPolyline
 90
        6
 70
     1
 43
0.0
 10
-13.24011537017759
 20
227.7474149375571
 10
-7.740115370177591
 20
237.2736943791859
 10
-13.24011537017759
 20
246.7999738208148
 10
-24.24011537017757
 20
246.7999738208148
 10
-29.74011537017759
 20
237.2736943791859
 10
-24.2401153701776
 20
227.7474149375571
  0
LINE
  5
2A9D
330
18
100
AcDbEntity
  8
CENTER
100
AcDbLine
 10
-18.74011537017763
 20
248.5181654389512
 30
0.0
 11
-18.74011537017763
 21
225.6996313964543
 31
0.0
  0
CIRCLE
  5
2A9E
330
18
100
AcDbEntity
  8
BODY
 48
0.5
100
AcDbCircle
 10
-18.74011537017763
 20
237.273694379186
 30
0.0
 40
9.5
  0
CIRCLE
  5
2A9F
330
18
100
AcDbEntity
  8
BODY
 48
0.5
100
AcDbCircle
 10
-18.74011537017763
 20
237.273694379186
 30
0.0
 40
6.0
  0
CIRCLE
  5
2AA0
330
18
100
AcDbEntity
  8
BODY
 48
0.5
100
AcDbCircle
 10
-18.74011537017763
 20
237.273694379186
 30
0.0
 40
5.0
  0
LINE
  5
2AA1
330
18
100
AcDbEntity
  8
CENTER
100
AcDbLine
 10
-32.00201282398257
 20
237.273694379186
 30
0.0
 11
-5.572139480690566
 21
237.273694379186
 31
0.0
  0
CIRCLE
  5
2AA2
330
18
100
AcDbEntity
  8
BODY
 48
0.5
100
AcDbCircle
 10
88.74011537017763
 20
237.273694379186
 30
0.0
 40
5.0
  0
CIRCLE
  5
2AA3
330
18
100
AcDbEntity
  8
BODY
 48
0.5
100
AcDbCircle
 10
88.74011537017763
 20
237.273694379186
 30
0.0
 40
6.0
  0
CIRCLE
  5
2AA4
330
18
100
AcDbEntity
  8
BODY
 48
0.5
100
AcDbCircle
 10
88.74011537017763
 20
237.273694379186
 30
0.0
 40
9.5
  0
LINE
  5
2AA5
330
18
100
AcDbEntity
  8
CENTER
100
AcDbLine
 10
88.74011537017763
 20
248.5181654389512
 30
0.0
 11
88.74011537017763
 21
225.6996313964543
 31
0.0
  0
LWPOLYLINE
  5
2AA6
330
18
100
AcDbEntity
  8
BODY
 48
0.5
100
AcDbPolyline
 90
        6
 70
     1
 43
0.0
 10
83.24011537017758
 20
227.7474149375571
 10
77.74011537017759
 20
237.2736943791859
 10
83.24011537017758
 20
246.7999738208148
 10
94.24011537017758
 20
246.7999738208148
 10
99.74011537017759
 20
237.2736943791859
 10
94.2401153701776
 20
227.7474149375571
  0
LINE
  5
2AA7
330
18
100
AcDbEntity
  8
CENTER
100
AcDbLine
 10
102.0020128239825
 20
237.273694379186
 30
0.0
 11
75.57213948069056
 21
237.273694379186
 31
0.0
  0
ARC
  5
2AA9
330
18
100
AcDbEntity
  8
CENTER
 48
0.5
100
AcDbCircle
 10
35.0
 20
291.0138097493636
 30
0.0
 40
84.0
100
AcDbArc
 50
57.69745479082989
 51
122.30254520917
  0
ARC
  5
2AAB
330
18
100
AcDbEntity
  8
CENTER
 48
0.5
100
AcDbCircle
 10
35.0
 20
291.0138097493636
 30
0.0
 40
84.0
100
AcDbArc
 50
327.6974547908298
 51
336.123792269449
  0
ARC
  5
2AAD
330
18
100
AcDbEntity
  8
CENTER
 48
0.5
100
AcDbCircle
 10
35.0
 20
291.0138097493636
 30
0.0
 40
84.0
100
AcDbArc
 50
237.6974547908299
 51
302.3025452091701
  0
LINE
  5
2AB0
330
18
100
AcDbEntity
  8
BODY
 48
0.5
100
AcDbLine
 10
80.0
 20
56.98153164477298
 30
0.0
 11
80.0
 21
50.98153164477299
 31
0.0
  0
LINE
  5
2AB1
330
18
100
AcDbEntity
  8
BODY
 48
0.5
100
AcDbLine
 10
220.0
 20
56.98153164477298
 30
0.0
 11
220.0
 21
50.98153164477299
 31
0.0
  0
LINE
  5
2AB4
330
18
100
AcDbEntity
  8
CENTER
100
AcDbLine
 10
88.74011537017764
 20
-0.2012356522886876
 30
0.0
 11
88.74011537017764
 21
31.14907023096771
 31
0.0
  0
LINE
  5
2AB6
330
18
100
AcDbEntity
  8
CENTER
100
AcDbLine
 10
-18.74011537017764
 20
-0.2012356522886876
 30
0.0
 11
-18.74011537017764
 21
31.14907023096771
 31
0.0
  0
CIRCLE
  5
2AB8
330
18
100
AcDbEntity
  8
BODY
 48
0.5
100
AcDbCircle
 10
150.0
 20
291.0138097493636
 30
0.0
 40
35.25
  0
ARC
  5
2AB9
330
18
100
AcDbEntity
  8
BODY
 48
0.5
100
AcDbCircle
 10
150.0
 20
291.0138097493636
 30
0.0
 40
37.5
100
AcDbArc
 50
20.28356854194917
 51
159.7164314580509
  0
ARC
  5
2AC1
330
18
100
AcDbEntity
  8
BODY
 48
0.5
100
AcDbCircle
 10
213.0
 20
291.0138097493636
 30
0.0
 40
7.0
100
AcDbArc
 50
281.8672303921387
 51
78.13276960786123
  0
LINE
  5
2AC2
330
18
100
AcDbEntity
  8
BODY
 48
0.5
100
AcDbLine
 10
185.1745646739231
 20
304.0138097493636
 30
0.0
 11
214.4395115396747
 21
297.8641970761607
 31
0.0
  0
LINE
  5
2AC3
330
18
100
AcDbEntity
  8
BODY
 48
0.5
100
AcDbLine
 10
185.1745646739231
 20
278.0138097493636
 30
0.0
 11
214.4395115396747
 21
284.1634224225665
 31
0.0
  0
ARC
  5
2AC4
330
18
100
AcDbEntity
  8
BODY
 48
0.5
100
AcDbCircle
 10
87.0
 20
291.0138097493636
 30
0.0
 40
7.0
100
AcDbArc
 50
101.8672303921387
 51
258.1327696078612
  0
LINE
  5
2AC5
330
18
100
AcDbEntity
  8
BODY
 48
0.5
100
AcDbLine
 10
114.8254353260768
 20
304.0138097493636
 30
0.0
 11
85.56048846032519
 21
297.8641970761607
 31
0.0
  0
LINE
  5
2AC6
330
18
100
AcDbEntity
  8
BODY
 48
0.5
100
AcDbLine
 10
114.8254353260768
 20
278.0138097493636
 30
0.0
 11
85.56048846032519
 21
284.1634224225665
 31
0.0
  0
ARC
  5
2AC7
330
18
100
AcDbEntity
  8
BODY
 48
0.5
100
AcDbCircle
 10
150.0
 20
291.0138097493636
 30
0.0
 40
37.5
100
AcDbArc
 50
200.2835685419491
 51
339.7164314580507
  0
ARC
  5
2ACB
330
18
100
AcDbEntity
  8
BODY
 48
0.5
100
AcDbCircle
 10
150.0
 20
291.0138097493636
 30
0.0
 40
51.0
100
AcDbArc
 50
191.1673331763939
 51
210.3737861998379
  0
LINE
  5
2ACF
330
18
100
AcDbEntity
  8
BODY
 48
0.5
100
AcDbLine
 10
81.63809735261819
 20
286.5138097493636
 30
0.0
 11
69.70950878361719
 21
286.5138097493636
 31
0.0
  0
LINE
  5
2AD0
330
18
100
AcDbEntity
  8
BODY
 48
0.5
100
AcDbLine
 10
69.70950878361719
 20
295.5138097493636
 30
0.0
 11
81.63809735261819
 21
295.5138097493636
 31
0.0
  0
CIRCLE
  5
2AD1
330
18
100
AcDbEntity
  8
BODY
 48
0.5
100
AcDbCircle
 10
150.0
 20
291.0138097493636
 30
0.0
 40
34.25
  0
CIRCLE
  5
2AD2
330
18
100
AcDbEntity
  8
BODY
 48
0.5
100
AcDbCircle
 10
150.0
 20
291.0138097493636
 30
0.0
 40
28.5
  0
ARC
  5
2AD3
330
18
100
AcDbEntity
  8
BODY
 48
0.5
100
AcDbCircle
 10
150.0
 20
291.0138097493636
 30
0.0
 40
38.5
100
AcDbArc
 50
19.35289132035951
 51
160.6471086796405
  0
ARC
  5
2AD6
330
18
100
AcDbEntity
  8
BODY
 48
0.5
100
AcDbCircle
 10
150.0
 20
291.0138097493636
 30
0.0
 40
38.5
100
AcDbArc
 50
199.3528913203595
 51
340.6471086796404
  0
CIRCLE
  5
2ADB
330
18
100
AcDbEntity
  8
BODY
 48
0.5
100
AcDbCircle
 10
150.0
 20
348.0138097493636
 30
0.0
 40
9.5
  0
LWPOLYLINE
  5
2ADD
330
18
100
AcDbEntity
  8
BODY
 48
0.5
100
AcDbPolyline
 90
        6
 70
     1
 43
0.0
 10
144.4999999999999
 20
357.5400891909925
 10
138.9999999999999
 20
348.0138097493636
 10
144.4999999999999
 20
338.4875303077348
 10
155.4999999999999
 20
338.4875303077348
 10
160.9999999999999
 20
348.0138097493636
 10
155.4999999999999
 20
357.5400891909925
  0
LINE
  5
2ADE
330
18
100
AcDbEntity
  8
CENTER
100
AcDbLine
 10
163.2618974538049
 20
348.0138097493636
 30
0.0
 11
136.8320241105129
 21
348.0138097493636
 31
0.0
  0
LINE
  5
2AE0
330
18
100
AcDbEntity
  8
BODY
 48
0.5
100
AcDbLine
 10
136.5731809200264
 20
356.7155641353285
 30
0.0
 11
110.5587189525778
 21
316.5752132581356
 31
0.0
  0
LINE
  5
2AE1
330
18
100
AcDbEntity
  8
BODY
 48
0.5
100
AcDbLine
 10
163.4268190799735
 20
356.7155641353285
 30
0.0
 11
189.4412810474221
 21
316.5752132581356
 31
0.0
  0
ARC
  5
2AE2
330
18
100
AcDbEntity
  8
BODY
 48
0.5
100
AcDbCircle
 10
150.0
 20
348.0138097493636
 30
0.0
 40
16.0
100
AcDbArc
 50
32.94677044402729
 51
147.0532295559727
  0
ARC
  5
2AE3
330
18
100
AcDbEntity
  8
BODY
 48
0.5
100
AcDbCircle
 10
150.0
 20
291.0138097493636
 30
0.0
 40
47.0
100
AcDbArc
 50
147.0532295559728
 51
166.7426857264907
  0
ARC
  5
2AE4
330
18
100
AcDbEntity
  8
BODY
 48
0.5
100
AcDbCircle
 10
150.0
 20
234.0138097493636
 30
0.0
 40
16.0
100
AcDbArc
 50
212.9467704440272
 51
327.0532295559726
  0
LINE
  5
2AE5
330
18
100
AcDbEntity
  8
CENTER
100
AcDbLine
 10
163.2618974538049
 20
234.0138097493636
 30
0.0
 11
136.8320241105129
 21
234.0138097493636
 31
0.0
  0
LWPOLYLINE
  5
2AE6
330
18
100
AcDbEntity
  8
BODY
 48
0.5
100
AcDbPolyline
 90
        6
 70
     1
 43
0.0
 10
144.4999999999999
 20
224.4875303077347
 10
138.9999999999999
 20
234.0138097493635
 10
144.4999999999999
 20
243.5400891909924
 10
155.4999999999999
 20
243.5400891909924
 10
160.9999999999999
 20
234.0138097493635
 10
155.4999999999999
 20
224.4875303077347
  0
CIRCLE
  5
2AE7
330
18
100
AcDbEntity
  8
BODY
 48
0.5
100
AcDbCircle
 10
150.0
 20
234.0138097493636
 30
0.0
 40
9.5
  0
LINE
  5
2AE8
330
18
100
AcDbEntity
  8
BODY
 48
0.5
100
AcDbLine
 10
136.5731809200264
 20
225.3120553633987
 30
0.0
 11
110.5587189525778
 21
265.4524062405917
 31
0.0
  0
LINE
  5
2AE9
330
18
100
AcDbEntity
  8
BODY
 48
0.5
100
AcDbLine
 10
163.4268190799735
 20
225.3120553633987
 30
0.0
 11
189.4412810474221
 21
265.4524062405917
 31
0.0
  0
ARC
  5
2AEA
330
18
100
AcDbEntity
  8
BODY
 48
0.5
100
AcDbCircle
 10
150.0
 20
291.0138097493636
 30
0.0
 40
47.0
100
AcDbArc
 50
327.0532295559728
 51
346.7426857264907
  0
ARC
  5
2AEE
330
18
100
AcDbEntity
  8
BODY
 48
0.5
100
AcDbCircle
 10
35.0
 20
291.0138097493636
 30
0.0
 40
105.4999999999999
100
AcDbArc
 50
29.06798304685763
 51
330.9320169531423
  0
ARC
  5
2AEF
330
18
100
AcDbEntity
  8
CENTER
 48
0.5
100
AcDbCircle
 10
35.0
 20
291.0138097493636
 30
0.0
 40
84.0
100
AcDbArc
 50
23.87620773055094
 51
32.30254520917014
  0
ARC
  5
2AF0
330
18
100
AcDbEntity
  8
BODY
 48
0.5
100
AcDbCircle
 10
150.0
 20
291.0138097493636
 30
0.0
 40
47.0
100
AcDbArc
 50
193.2573142735092
 51
212.9467704440272
  0
ARC
  5
2AF1
330
18
100
AcDbEntity
  8
BODY
 48
0.5
100
AcDbCircle
 10
150.0
 20
291.0138097493636
 30
0.0
 40
47.0
100
AcDbArc
 50
13.25731427350925
 51
32.94677044402723
  0
LINE
  5
2AF2
330
18
100
AcDbEntity
  8
BODY
 48
0.5
100
AcDbLine
 10
35.0
 20
291.0138097493636
 30
0.0
 11
35.0
 21
325.0138097493636
 31
0.0
  0
LINE
  5
2AF4
330
18
100
AcDbEntity
  8
BODY
 48
0.5
100
AcDbLine
 10
106.0
 20
325.0138097493636
 30
0.0
 11
116.0276683434619
 21
325.0138097493636
 31
0.0
  0
LINE
  5
2AF5
330
18
100
AcDbEntity
  8
BODY
 48
0.5
100
AcDbLine
 10
106.0
 20
257.0138097493636
 30
0.0
 11
116.0276683434619
 21
257.0138097493635
 31
0.0
  0
LINE
  5
2B03
330
18
100
AcDbEntity
  8
CENTER
100
AcDbLine
 10
150.0
 20
212.207267913408
 30
0.0
 11
150.0
 21
370.432042606428
 31
0.0
  0
LINE
  5
2B04
330
18
100
AcDbEntity
  8
CENTER
100
AcDbLine
 10
35.0
 20
178.7343512564284
 30
0.0
 11
35.0
 21
402.7528239591386
 31
0.0
  0
DIMENSION
  5
2B21
330
18
100
AcDbEntity
  8
DIMS
 48
0.5
100
AcDbDimension
  2
*D6
 10
-95.03861354736455
 20
-113.018468355227
 30
0.0
 11
-98.73861354705821
 21
4.481531644772991
 31
0.0
 70
    32
 71
     5
 42
-1.0
  3
MECH
100
AcDbAlignedDimension
 13
18.5
 23
121.9815316447729
 33
0.0
 14
-27.5
 24
-113.018468355227
 34
0.0
 50
90.0
100
AcDbRotatedDimension
1001
ACAD
1000
DSTYLE
1002
{
1070
    40
1040
1.999999999834409
1002
}
  0
DIMENSION
  5
2B38
330
18
100
AcDbEntity
  8
DIMS
 48
0.5
100
AcDbDimension
  2
*D7
 10
-6.154711439454629
 20
193.8719561210987
 30
0.0
 11
51.28648202756948
 21
346.2623298378994
 31
0.0
 70
   163
 71
     5
 42
-1.0
  3
MECH
100
AcDbDiametricDimension
 15
76.15471143945464
 25
388.1556633776284
 35
0.0
 40
0.0
1001
ACAD
1000
DSTYLE
1002
{
1070
   288
1070
     1
1070
    40
1040
1.999999999834409
1002
}
  0
DIMENSION
  5
2B45
330
18
100
AcDbEntity
  8
DIMS
 48
0.5
100
AcDbDimension
  2
*D8
 10
150.0
 20
163.2701341722652
 30
0.0
 11
92.5
 21
166.9701341719588
 31
0.0
 70
    32
 71
     5
 42
-1.0
  3
MECH
100
AcDbAlignedDimension
 13
35.0
 23
178.7343512564284
 33
0.0
 14
150.0
 24
212.207267913408
 34
0.0
100
AcDbRotatedDimension
1001
ACAD
1000
DSTYLE
1002
{
1070
    40
1040
1.999999999834409
1002
}
  0
DIMENSION
  5
2B52
330
18
100
AcDbEntity
  8
DIMS
 48
0.5
100
AcDbDimension
  2
*D9
 10
-70.50000000000001
 20
149.8058252730374
 30
0.0
 11
-17.75
 21
153.5058252727311
 31
0.0
 70
    32
 71
     5
 42
-1.0
  3
MECH
100
AcDbAlignedDimension
 13
35.0
 23
178.7343512564284
 33
0.0
 14
-70.5
 24
291.0138097493636
 34
0.0
100
AcDbRotatedDimension
1001
ACAD
1000
DSTYLE
1002
{
1070
    40
1040
1.999999999834409
1002
}
  0
DIMENSION
  5
2B5F
330
18
100
AcDbEntity
  8
DIMS
 48
0.5
100
AcDbDimension
  2
*D10
 10
220.0
 20
149.8058252730374
 30
0.0
 11
127.5
 21
153.5058252727311
 31
0.0
 70
    32
 71
     5
 42
-1.0
  3
MECH
100
AcDbAlignedDimension
 13
35.0
 23
178.7343512564284
 33
0.0
 14
220.0
 24
291.0138097493636
 34
0.0
100
AcDbRotatedDimension
1001
ACAD
1000
DSTYLE
1002
{
1070
    40
1040
1.999999999834409
1002
}
  0
DIMENSION
  5
2B77
330
18
100
AcDbEntity
  8
DIMS
 48
0.5
100
AcDbDimension
  2
*D11
 10
220.0
 20
136.9832684508178
 30
0.0
 11
74.75
 21
140.6832684505114
 31
0.0
 70
    32
 71
     5
 42
-1.0
  3
MECH
100
AcDbAlignedDimension
 13
-70.5
 23
291.0138097493636
 33
0.0
 14
220.0
 24
291.0138097493636
 34
0.0
100
AcDbRotatedDimension
1001
ACAD
1000
DSTYLE
1002
{
1070
    40
1040
1.999999999834409
1002
}
  0
LINE
  5
2B7B
330
18
100
AcDbEntity
  8
BODY
 48
0.5
100
AcDbLine
 10
253.4644305018325
 20
-46.90566618133561
 30
0.0
 11
253.4644305018325
 21
-96.90566618133562
 31
0.0
  0
LINE
  5
2B7C
330
18
100
AcDbEntity
  8
BODY
 48
0.5
100
AcDbLine
 10
253.4644305018325
 20
-96.90566618133562
 30
0.0
 11
403.4644305018325
 21
-96.90566618133562
 31
0.0
  0
LINE
  5
2B7D
330
18
100
AcDbEntity
  8
BODY
 48
0.5
100
AcDbLine
 10
403.4644305018325
 20
-96.90566618133562
 30
0.0
 11
403.4644305018325
 21
-46.90566618133561
 31
0.0
  0
LINE
  5
2B7E
330
18
100
AcDbEntity
  8
BODY
 48
0.5
100
AcDbLine
 10
403.4644305018325
 20
-46.90566618133561
 30
0.0
 11
253.4644305018325
 21
-46.90566618133561
 31
0.0
  0
LINE
  5
2B7F
330
18
100
AcDbEntity
  8
BODY
 48
0.5
100
AcDbLine
 10
253.4644305018325
 20
-71.90566618133562
 30
0.0
 11
403.4644305018325
 21
-71.90566618133562
 31
0.0
  0
MTEXT
  5
2B80
330
18
100
AcDbEntity
  8
BODY
 48
0.5
100
AcDbMText
 10
274.7485134957867
 20
-49.77965135555223
 30
0.0
 40
7.0
 41
100.0931272931408
 71
     1
 72
     5
  1
LLE型水道用地下式消火栓\P（単口－75）
 73
     1
 44
1.0
  0
MTEXT
  5
2B81
330
18
100
AcDbEntity
  8
BODY
 48
0.5
100
AcDbMText
 10
279.925722252112
 20
-81.39348417869587
 30
0.0
 40
10.0
 41
109.8718874739881
 71
     1
 72
     5
  1
千代田工業株式会社
 73
     1
 44
1.0
  0
VIEWPORT
  5
36
330
15
100
AcDbEntity
 67
     1
  8
0
100
AcDbViewport
 10
170.4662653365952
 20
154.5728615920944
 30
0.0
 40
524.248160785016
 41
297.0181273031187
 68
     1
 69
     1
 12
170.4662653365952
 22
154.5728615920944
 13
0.0
 23
0.0
 14
10.0
 24
10.0
 15
10.0
 25
10.0
 16
0.0
 26
0.0
 36
1.0
 17
0.0
 27
0.0
 37
0.0
 42
50.0
 43
0.0
 44
0.0
 45
297.0181273031187
 50
0.0
 51
0.0
 72
   100
 90
    32800
  1

281
     0
 71
     1
 74
     0
110
0.0
120
0.0
130
0.0
111
1.0
121
0.0
131
0.0
112
0.0
122
1.0
132
0.0
 79
     0
146
0.0
  0
VIEWPORT
  5
82
330
15
100
AcDbEntity
 67
     1
  8
VIEWPORT
100
AcDbViewport
 10
139.6569760006137
 20
156.7748841539828
 30
0.0
 40
318.6922510770634
 41
286.5524886901719
 68
     2
 69
     2
 12
143.6371111298539
 22
142.5476260487669
 13
0.0
 23
0.0
 14
10.0
 24
10.0
 15
10.0
 25
10.0
 16
0.0
 26
0.0
 36
1.0
 17
0.0
 27
0.0
 37
0.0
 42
50.0
 43
0.0
 44
0.0
 45
573.1049778721759
 50
0.0
 51
0.0
 72
   100
 90
    32800
  1

281
     0
 71
     1
 74
     0
110
0.0
120
0.0
130
0.0
111
1.0
121
0.0
131
0.0
112
0.0
122
1.0
132
0.0
 79
     0
146
0.0
  0
ENDSEC
  0
SECTION
  2
OBJECTS
  0
DICTIONARY
  5
C
330
0
100
AcDbDictionary
281
     1
  3
ACAD_GROUP
350
D
  3
ACAD_LAYOUT
350
2B8E
  3
ACAD_MLINESTYLE
350
1B
  3
ACAD_PLOTSETTINGS
350
2B8F
  3
ACAD_PLOTSTYLENAME
350
2B8C
  3
ACDBVARIABLEDICTIONARY
350
83
  3
CONTENTDICTIONARY
350
23
  0
DICTIONARY
  5
D
102
{ACAD_REACTORS
330
C
102
}
330
C
100
AcDbDictionary
281
     1
  0
DICTIONARY
  5
2B8E
102
{ACAD_REACTORS
330
C
102
}
330
C
100
AcDbDictionary
281
     1
  3
Model
350
2B90
  3
ﾚｲｱｳﾄ1
350
2B91
  0
DICTIONARY
  5
1B
102
{ACAD_REACTORS
330
C
102
}
330
C
100
AcDbDictionary
281
     1
  3
STANDARD
350
1C
  0
DICTIONARY
  5
2B8F
102
{ACAD_REACTORS
330
C
102
}
330
C
100
AcDbDictionary
281
     1
  0
ACDBDICTIONARYWDFLT
  5
2B8C
102
{ACAD_REACTORS
330
C
102
}
330
C
100
AcDbDictionary
281
     1
  3
Normal
350
2B8D
100
AcDbDictionaryWithDefault
340
2B8D
  0
DICTIONARY
  5
83
102
{ACAD_REACTORS
330
C
102
}
330
C
100
AcDbDictionary
281
     1
  3
DIMADEC
350
84
  3
DIMASSOC
350
2B97
  3
SORTENTS
350
265
  0
DICTIONARY
  5
23
102
{ACAD_REACTORS
330
C
102
}
330
C
100
AcDbDictionary
281
     1
  0
LAYOUT
  5
2B90
102
{ACAD_REACTORS
330
2B8E
102
}
330
2B8E
100
AcDbPlotSettings
  1

  2
Canon PIXUS 6500i
  4

  6

 40
0.0
 41
0.0
 42
0.0
 43
0.0
 44
0.0
 45
0.0
 46
0.0
 47
0.0
 48
0.0
 49
0.0
140
0.0
141
0.0
142
1.0
143
1.0
 70
  1712
 72
     0
 73
     0
 74
     0
  7

 75
     0
147
1.0
148
0.0
149
0.0
100
AcDbLayout
  1
Model
 70
     1
 71
     0
 10
0.0
 20
0.0
 11
12.0
 21
9.0
 12
0.0
 22
0.0
 32
0.0
 14
0.0
 24
0.0
 34
0.0
 15
0.0
 25
0.0
 35
0.0
146
0.0
 13
0.0
 23
0.0
 33
0.0
 16
1.0
 26
0.0
 36
0.0
 17
0.0
 27
1.0
 37
0.0
 76
     0
330
18
  0
LAYOUT
  5
2B91
102
{ACAD_REACTORS
330
2B8E
102
}
330
2B8E
100
AcDbPlotSettings
  1

  2
Canon PIXUS 6500i
  4
A4
  6

 40
4.222749710083007
 41
5.789084434509277
 42
4.138076782226562
 43
3.799407958984375
 44
209.9733276367187
 45
296.9683227539062
 46
0.0
 47
0.0
 48
0.0
 49
0.0
140
0.0
141
0.0
142
1.0
143
1.42139880393956
 70
   688
 72
     1
 73
     1
 74
     1
  7

 75
     0
147
0.703532321279849
148
19.70256715332959
149
-13.48851832212221
100
AcDbLayout
  1
ﾚｲｱｳﾄ1
 70
     1
 71
     1
 10
-25.10304108190843
 20
7.486306934874104
 11
397.0073776884312
 21
305.9421436969155
 12
0.0
 22
0.0
 32
0.0
 14
-19.70256715332959
 24
13.48851832212221
 34
-0.0015258207003583
 15
299.0236592839705
 25
300.0602863080487
 35
0.0000000349246037
146
0.0
 13
0.0
 23
0.0
 33
0.0
 16
1.0
 26
0.0
 36
0.0
 17
0.0
 27
1.0
 37
0.0
 76
     0
330
15
331
36
  0
MLINESTYLE
  5
1C
102
{ACAD_REACTORS
330
1B
102
}
330
1B
100
AcDbMlineStyle
  2
STANDARD
 70
     0
  3

 62
   256
 51
90.0
 52
90.0
 71
     2
 49
0.5
 62
   256
  6
BYLAYER
 49
-0.5
 62
   256
  6
BYLAYER
  0
ACDBPLACEHOLDER
  5
2B8D
102
{ACAD_REACTORS
330
2B8C
102
}
330
2B8C
  0
DICTIONARYVAR
  5
84
102
{ACAD_REACTORS
330
83
102
}
330
83
100
DictionaryVariables
280
     0
  1
1
  0
DICTIONARYVAR
  5
2B97
102
{ACAD_REACTORS
330
83
102
}
330
83
100
DictionaryVariables
280
     0
  1
1
  0
DICTIONARYVAR
  5
265
102
{ACAD_REACTORS
330
83
102
}
330
83
100
DictionaryVariables
280
     0
  1
96
  0
ENDSEC
  0
EOF
